<?xml version="1.0" standalone="no"?>
<!DOCTYPE svg PUBLIC "-//W3C//DTD SVG 1.1//EN" "http://www.w3.org/Graphics/SVG/1.1/DTD/svg11.dtd">
<svg xmlns="http://www.w3.org/2000/svg">
<metadata>Copyright (C) 2020 by original authors @ fontello.com</metadata>
<defs>
<font id="fontello" horiz-adv-x="1000" >
<font-face font-family="fontello" font-weight="400" font-stretch="normal" units-per-em="1000" ascent="850" descent="-150" />
<missing-glyph horiz-adv-x="1000" />
<glyph glyph-name="bell" unicode="&#xe800;" d="M509-96q0 8-9 8-33 0-57 24t-23 57q0 9-9 9t-9-9q0-41 29-70t69-28q9 0 9 9z m-372 160h726q-149 168-149 465 0 28-13 58t-39 58-67 45-95 17-95-17-67-45-39-58-13-58q0-297-149-465z m827 0q0-29-21-50t-50-21h-250q0-59-42-101t-101-42-101 42-42 101h-250q-29 0-50 21t-21 50q28 24 51 49t47 67 42 89 27 115 11 145q0 84 66 157t171 89q-5 10-5 21 0 23 16 38t38 16 38-16 16-38q0-11-5-21 106-16 171-89t66-157q0-78 11-145t28-115 41-89 48-67 50-49z" horiz-adv-x="1000" />

<glyph glyph-name="mail" unicode="&#xe801;" d="M929 11v428q-18-20-39-36-149-115-238-189-28-24-46-37t-48-28-57-13h-2q-26 0-57 13t-48 28-46 37q-88 74-238 189-21 16-39 36v-428q0-7 6-13t12-5h822q7 0 12 5t6 13z m0 586v14t-1 7-1 7-3 5-5 4-8 2h-822q-7 0-12-6t-6-12q0-94 83-159 107-84 223-176 4-3 20-17t25-21 25-17 28-16 24-5h2q11 0 24 5t28 16 25 17 25 21 20 17q116 92 224 176 30 24 56 65t26 73z m71 21v-607q0-37-26-63t-63-27h-822q-36 0-63 27t-26 63v607q0 37 26 63t63 26h822q37 0 63-26t26-63z" horiz-adv-x="1000" />

<glyph glyph-name="ok-circled2" unicode="&#xe802;" d="M654 396l-236-235q-11-11-25-11t-25 11l-164 164q-11 11-11 25t11 25l57 57q10 11 25 11t25-11l82-82 153 154q11 10 25 10t26-10l57-57q10-11 10-26t-10-25z m78-46q0 83-41 152t-110 111-152 41-153-41-110-111-41-152 41-152 110-111 153-41 152 41 110 111 41 152z m125 0q0-117-57-215t-156-156-215-58-216 58-155 156-58 215 58 215 155 156 216 58 215-58 156-156 57-215z" horiz-adv-x="857.1" />

<glyph glyph-name="cancel-circled2" unicode="&#xe803;" d="M612 248l-81-82q-6-5-13-5t-13 5l-76 77-77-77q-5-5-13-5t-12 5l-82 82q-6 6-6 13t6 13l76 76-76 77q-6 5-6 12t6 13l82 82q5 5 12 5t13-5l77-77 76 77q6 5 13 5t13-5l81-82q6-5 6-13t-6-12l-76-77 76-76q6-6 6-13t-6-13z m120 102q0 83-41 152t-110 111-152 41-153-41-110-111-41-152 41-152 110-111 153-41 152 41 110 111 41 152z m125 0q0-117-57-215t-156-156-215-58-216 58-155 156-58 215 58 215 155 156 216 58 215-58 156-156 57-215z" horiz-adv-x="857.1" />

<glyph glyph-name="cancel-circled" unicode="&#xe804;" d="M641 224q0 14-10 25l-101 101 101 101q10 11 10 25 0 15-10 26l-51 50q-10 11-25 11-15 0-25-11l-101-101-101 101q-11 11-25 11-16 0-26-11l-50-50q-11-11-11-26 0-14 11-25l101-101-101-101q-11-11-11-25 0-15 11-26l50-50q10-11 26-11 14 0 25 11l101 101 101-101q10-11 25-11 15 0 25 11l51 50q10 11 10 26z m216 126q0-117-57-215t-156-156-215-58-216 58-155 156-58 215 58 215 155 156 216 58 215-58 156-156 57-215z" horiz-adv-x="857.1" />

<glyph glyph-name="down-open" unicode="&#xe805;" d="M939 399l-414-413q-10-11-25-11t-25 11l-414 413q-11 11-11 26t11 25l93 92q10 11 25 11t25-11l296-296 296 296q11 11 25 11t26-11l92-92q11-11 11-25t-11-26z" horiz-adv-x="1000" />

<glyph glyph-name="left-open" unicode="&#xe806;" d="M654 682l-297-296 297-297q10-10 10-25t-10-25l-93-93q-11-10-25-10t-25 10l-414 415q-11 10-11 25t11 25l414 414q10 11 25 11t25-11l93-93q10-10 10-25t-10-25z" horiz-adv-x="714.3" />

<glyph glyph-name="right-open" unicode="&#xe807;" d="M618 361l-414-415q-11-10-25-10t-25 10l-93 93q-11 11-11 25t11 25l296 297-296 296q-11 11-11 25t11 25l93 93q10 11 25 11t25-11l414-414q10-11 10-25t-10-25z" horiz-adv-x="714.3" />

<glyph glyph-name="up-open" unicode="&#xe808;" d="M939 107l-92-92q-11-10-26-10t-25 10l-296 297-296-297q-11-10-25-10t-25 10l-93 92q-11 11-11 26t11 25l414 414q11 10 25 10t25-10l414-414q11-11 11-25t-11-26z" horiz-adv-x="1000" />

<glyph glyph-name="down-dir" unicode="&#xe809;" d="M571 457q0-14-10-25l-250-250q-11-11-25-11t-25 11l-250 250q-11 11-11 25t11 25 25 11h500q14 0 25-11t10-25z" horiz-adv-x="571.4" />

<glyph glyph-name="up-dir" unicode="&#xe80a;" d="M571 171q0-14-10-25t-25-10h-500q-15 0-25 10t-11 25 11 26l250 250q10 10 25 10t25-10l250-250q10-11 10-26z" horiz-adv-x="571.4" />

<glyph glyph-name="left-dir" unicode="&#xe80b;" d="M357 600v-500q0-14-10-25t-26-11-25 11l-250 250q-10 11-10 25t10 25l250 250q11 11 25 11t26-11 10-25z" horiz-adv-x="357.1" />

<glyph glyph-name="right-dir" unicode="&#xe80c;" d="M321 350q0-14-10-25l-250-250q-11-11-25-11t-25 11-11 25v500q0 15 11 25t25 11 25-11l250-250q10-10 10-25z" horiz-adv-x="357.1" />

<glyph glyph-name="ok" unicode="&#xe80d;" d="M933 534q0-22-16-38l-404-404-76-76q-16-15-38-15t-38 15l-76 76-202 202q-15 16-15 38t15 38l76 76q16 16 38 16t38-16l164-165 366 367q16 16 38 16t38-16l76-76q16-15 16-38z" horiz-adv-x="1000" />

<glyph glyph-name="cancel" unicode="&#xe80e;" d="M724 112q0-22-15-38l-76-76q-16-15-38-15t-38 15l-164 165-164-165q-16-15-38-15t-38 15l-76 76q-16 16-16 38t16 38l164 164-164 164q-16 16-16 38t16 38l76 76q16 16 38 16t38-16l164-164 164 164q16 16 38 16t38-16l76-76q15-15 15-38t-15-38l-164-164 164-164q15-15 15-38z" horiz-adv-x="785.7" />

<glyph glyph-name="dot-3" unicode="&#xe80f;" d="M110 460q46 0 78-32t32-78q0-44-32-77t-78-33-78 33-32 77q0 46 32 78t78 32z m350 0q46 0 78-32t32-78q0-44-33-77t-77-33-77 33-33 77q0 46 32 78t78 32z m350 0q46 0 78-32t32-78q0-44-32-77t-78-33-78 33-32 77q0 46 32 78t78 32z" horiz-adv-x="920" />

<glyph glyph-name="user-add-outline" unicode="&#xe810;" d="M938 273l-313 0q-21 0-37 15t-15 36 15 37 37 15l313 0q21 0 36-15t16-37-16-36-36-15z m-157-157q-21 0-37 15t-15 37l0 312q0 21 15 37t37 16 37-16 16-37l0-312q0-22-16-37t-37-15z m-468 573q-65 0-111-46t-46-110 46-111 111-46 110 46 46 111-46 110-110 46z m0 104q107 0 183-77t77-183-77-184-183-76-184 76-76 184 76 183 184 77z m0-677q-74 0-127-22t-72-54q75-29 199-29t197 29q-21 30-73 53t-124 23z m0 104q136 0 224-63t88-146q0-41-89-72t-223-32q-140 0-227 32t-86 72q0 83 86 146t227 63z" horiz-adv-x="990" />

<glyph glyph-name="cog-outline" unicode="&#xe811;" d="M560 741l-156 0-45-178-176 51-79-136 133-128-133-127 79-135 176 50 45-178 156 0 44 178 178-50 77 135-132 127 132 128-77 136-178-51z m0 104q35 0 63-22t37-57l19-73 74 21q15 4 29 4 60 0 90-53l77-135q18-31 13-66t-30-60l-55-54 55-52q25-25 30-60t-13-67l-77-136q-30-51-90-51-14 0-29 3l-74 21-17-74q-9-35-37-57t-65-22l-156 0q-36 0-64 22t-37 57l-19 74-72-22q-15-4-29-4-60 0-90 53l-79 135q-18 31-13 67t31 61l55 52-55 53q-25 25-30 60t12 67l79 135q30 53 90 53 14 0 29-4l72-21 19 73q9 35 37 57t64 22l156 0z m-78-391q-44 0-74-30t-30-74 30-74 74-30 74 31 31 73-31 73-74 31z m0 52q65 0 110-45t46-111-46-111-110-45-111 45-46 111 46 111 111 45z" horiz-adv-x="963" />

<glyph glyph-name="cog-1" unicode="&#xe812;" d="M571 350q0 59-41 101t-101 42-101-42-42-101 42-101 101-42 101 42 41 101z m286 61v-124q0-7-4-13t-11-7l-104-16q-10-30-21-51 19-27 59-77 6-6 6-13t-5-13q-15-21-55-61t-53-39q-7 0-14 5l-77 60q-25-13-51-21-9-76-16-104-4-16-20-16h-124q-8 0-14 5t-6 12l-16 103q-27 9-50 21l-79-60q-6-5-14-5-8 0-14 6-70 64-92 94-4 5-4 13 0 6 5 12 8 12 28 37t30 40q-15 28-23 55l-102 15q-7 1-11 7t-5 13v124q0 7 5 13t10 7l104 16q8 25 22 51-23 32-60 77-6 7-6 14 0 5 5 12 15 20 55 60t53 40q7 0 15-5l77-60q24 13 50 21 9 76 17 104 3 16 20 16h124q7 0 13-5t7-12l15-103q28-9 51-20l79 59q5 5 13 5 7 0 14-5 72-67 92-95 4-5 4-12 0-7-4-13-9-12-29-37t-30-40q15-28 23-54l102-16q7-1 12-7t4-13z" horiz-adv-x="857.1" />

<glyph glyph-name="search" unicode="&#xe813;" d="M643 386q0 103-73 176t-177 74-177-74-73-176 73-177 177-73 177 73 73 177z m286-465q0-29-22-50t-50-21q-30 0-50 21l-191 191q-100-69-223-69-80 0-153 31t-125 84-84 125-31 153 31 152 84 126 125 84 153 31 153-31 125-84 84-126 31-152q0-123-69-223l191-191q21-21 21-51z" horiz-adv-x="928.6" />

<glyph glyph-name="search-1" unicode="&#xe814;" d="M772 78q30-34 6-62l-46-46q-36-32-68 0l-190 190q-74-42-156-42-128 0-223 95t-95 223 90 219 218 91 224-95 96-223q0-88-46-162z m-678 358q0-88 68-156t156-68 151 63 63 153q0 88-68 155t-156 67-151-63-63-151z" horiz-adv-x="789" />

<glyph glyph-name="plus" unicode="&#xe815;" d="M786 439v-107q0-22-16-38t-38-15h-232v-233q0-22-16-37t-38-16h-107q-22 0-38 16t-15 37v233h-232q-23 0-38 15t-16 38v107q0 23 16 38t38 16h232v232q0 22 15 38t38 16h107q23 0 38-16t16-38v-232h232q23 0 38-16t16-38z" horiz-adv-x="785.7" />

<glyph glyph-name="minus" unicode="&#xe816;" d="M786 439v-107q0-22-16-38t-38-15h-678q-23 0-38 15t-16 38v107q0 23 16 38t38 16h678q23 0 38-16t16-38z" horiz-adv-x="785.7" />

<glyph glyph-name="plus-1" unicode="&#xe817;" d="M550 400q30 0 30-50t-30-50l-210 0 0-210q0-30-50-30t-50 30l0 210-210 0q-30 0-30 50t30 50l210 0 0 210q0 30 50 30t50-30l0-210 210 0z" horiz-adv-x="580" />

<glyph glyph-name="cog" unicode="&#xe818;" d="M571 350q0 59-41 101t-101 42-101-42-42-101 42-101 101-42 101 42 41 101z m286 61v-124q0-7-4-13t-11-7l-104-16q-10-30-21-51 19-27 59-77 6-6 6-13t-5-13q-15-21-55-61t-53-39q-7 0-14 5l-77 60q-25-13-51-21-9-76-16-104-4-16-20-16h-124q-8 0-14 5t-6 12l-16 103q-27 9-50 21l-79-60q-6-5-14-5-8 0-14 6-70 64-92 94-4 5-4 13 0 6 5 12 8 12 28 37t30 40q-15 28-23 55l-102 15q-7 1-11 7t-5 13v124q0 7 5 13t10 7l104 16q8 25 22 51-23 32-60 77-6 7-6 14 0 5 5 12 15 20 55 60t53 40q7 0 15-5l77-60q24 13 50 21 9 76 17 104 3 16 20 16h124q7 0 13-5t7-12l15-103q28-9 51-20l79 59q5 5 13 5 7 0 14-5 72-67 92-95 4-5 4-12 0-7-4-13-9-12-29-37t-30-40q15-28 23-54l102-16q7-1 12-7t4-13z" horiz-adv-x="857.1" />

<glyph glyph-name="minus-1" unicode="&#xe819;" d="M550 400q30 0 30-50t-30-50l-520 0q-30 0-30 50t30 50l520 0z" horiz-adv-x="580" />

<glyph glyph-name="arrow-combo" unicode="&#xe81a;" d="M230 850l230-364-460 0z m0-1000l-230 366 460 0z" horiz-adv-x="460" />

<glyph glyph-name="rfqs" unicode="&#xe81b;" d="M976 352v448c0 15-13 28-28 28h-367c-16 0-28-13-28-28v-475c0-15 12-28 28-28h288c-2-11-3-24-6-37-10-56-30-108-59-158-31-52-74-97-123-132-24-17-28-51-10-75 17-23 50-28 72-11 61 44 113 100 153 165 35 59 59 126 72 193 7 36 10 72 10 108-2 1-2 1-2 2z m-106 51h-211v317h211v-317z m124-51c0 124 0 247 0 370 0 23 0 46 0 69 0 29-15 53-47 55-56 2-112 0-168 0-64 0-128 0-192 0-29 0-51-18-52-48-1-18 0-36 0-53 0-136 0-272 0-407 0-4 0-8 0-12 1-26 20-45 46-47 19-1 38 0 58 0 71 0 143 0 214 0 5 0 11 0 16 0-6 6-12 12-18 18-10-80-38-157-87-223-23-30-50-57-80-80-13-10-26-18-34-33-7-14-10-30-7-46 6-32 34-58 67-59 35-2 64 28 88 49 59 52 107 116 140 186 19 42 34 86 43 131 6 24 10 49 12 73 1 13 1 25 2 37 0 12 1 22-7 31 2-4 4-8 6-13 0 1 0 2 0 2-3 23-39 23-36 0 1-6 3-10 7-15-2 4-4 8-6 12 0-147-56-292-162-396-11-12-23-22-35-32-12-10-26-25-42-29-25-6-48 19-42 44 3 13 13 19 24 27 14 11 28 22 40 35 25 23 46 49 65 76 45 67 69 143 79 223 1 9-9 18-18 18-55 0-110 0-164 0-33 0-67 0-99 0-13 0-33-5-35 11-2 16 0 32 0 47 0 32 0 63 0 95 0 75 0 151 0 226 0 27 0 54 0 81 0 11-5 32 10 35 14 3 31 0 46 0 34 0 67 0 101 0 67 0 134 0 201 0 11 0 28 4 30-12 1-16 0-34 0-50 0-129 0-257 0-386 0-3 0-6 0-10 0-23 36-23 36 0z m-124 69c-70 0-141 0-211 0 5-6 11-12 17-18 0 93 0 185 0 278 0 13 0 26 0 39-6-5-12-11-17-17 70 0 141 0 211 0-6 6-12 12-18 17 0-92 0-185 0-278 0-13 0-26 0-39 0-23 36-23 36 0 0 93 0 185 0 278 0 13 0 26 0 39 0 10-8 18-18 18-70 0-141 0-211 0-10 0-18-8-18-18 0-92 0-185 0-278 0-13 0-26 0-39 0-10 8-18 18-18 70 0 141 0 211 0 23 0 23 36 0 36z m-423-69v448c0 15-13 28-28 28h-367c-16 0-29-13-29-28v-475c0-15 13-28 29-28h288c-2-11-3-24-6-37-10-56-30-108-59-158-32-52-74-97-123-132-24-17-28-51-10-75 17-23 50-28 72-11 61 44 113 100 152 165 36 59 60 126 73 193 7 36 9 72 9 108-1 1-1 1-1 2z m-106 51h-212v317h212v-317z m124-51c0 124 0 247 0 370 0 23 0 46 0 69 0 29-15 53-47 55-56 2-112 0-168 0-64 0-128 0-192 0-29 0-51-18-52-48-1-18 0-36 0-53 0-136 0-272 0-407 0-4-1-8 0-12 1-26 20-45 46-47 19-1 38 0 57 0 72 0 144 0 215 0 5 0 10 0 16 0-6 6-12 12-18 18-10-80-39-157-87-223-23-30-50-57-80-80-13-10-26-18-34-33-8-14-10-30-7-46 6-32 34-58 67-59 35-2 64 28 88 49 59 52 107 116 140 186 19 42 33 86 43 131 6 24 9 49 11 73 2 13 2 25 3 37 0 12 1 22-7 31 2-4 4-8 6-13 0 1 0 2 0 2-3 23-39 23-36 0 1-6 2-10 7-15-2 4-4 8-6 12 0-147-57-292-162-396-12-12-23-22-36-32-11-10-25-25-41-29-25-6-48 19-42 44 3 13 13 19 23 27 15 11 28 22 41 35 25 23 46 49 65 76 44 67 69 143 79 223 1 9-9 18-18 18-55 0-110 0-165 0-33 0-66 0-99 0-12 0-33-5-34 11-2 16 0 32 0 47 0 32 0 63 0 95 0 75 0 151 0 226 0 27 0 54 0 81 0 11-5 32 10 35 14 3 31 0 46 0 33 0 67 0 101 0 67 0 134 0 201 0 11 0 28 4 29-12 2-16 0-34 0-50 0-129 0-257 0-386 0-3 0-6 0-10 1-23 37-23 37 0z m-124 69c-71 0-141 0-212 0 6-6 12-12 18-18 0 93 0 185 0 278 0 13 0 26 0 39-6-5-12-11-18-17 71 0 141 0 212 0-6 6-12 12-18 17 0-92 0-185 0-278 0-13 0-26 0-39 0-23 36-23 36 0 0 93 0 185 0 278 0 13 0 26 0 39 0 10-8 18-18 18-71 0-141 0-212 0-9 0-17-8-17-18 0-92 0-185 0-278 0-13 0-26 0-39 0-10 8-18 17-18 71 0 141 0 212 0 23 0 23 36 0 36z" horiz-adv-x="993" />

<glyph glyph-name="cancel-squared" unicode="&#xe81c;" d="M700 750q42 0 71-29t29-71l0-600q0-40-29-70t-71-30l-600 0q-40 0-70 30t-30 70l0 600q0 42 30 71t70 29l600 0z m-146-638l86 86-154 152 154 154-86 86-154-152-152 152-88-86 154-154-154-152 88-86 152 152z" horiz-adv-x="800" />

<glyph glyph-name="calendar" unicode="&#xe81d;" d="M71-79h161v161h-161v-161z m197 0h178v161h-178v-161z m-197 197h161v178h-161v-178z m197 0h178v178h-178v-178z m-197 214h161v161h-161v-161z m411-411h179v161h-179v-161z m-214 411h178v161h-178v-161z m428-411h161v161h-161v-161z m-214 197h179v178h-179v-178z m-196 482v161q0 7-6 12t-12 6h-36q-7 0-12-6t-6-12v-161q0-7 6-13t12-5h36q7 0 12 5t6 13z m410-482h161v178h-161v-178z m-214 214h179v161h-179v-161z m214 0h161v161h-161v-161z m18 268v161q0 7-5 12t-13 6h-35q-7 0-13-6t-5-12v-161q0-7 5-13t13-5h35q8 0 13 5t5 13z m215 36v-715q0-29-22-50t-50-21h-786q-29 0-50 21t-21 50v715q0 29 21 50t50 21h72v54q0 37 26 63t63 26h36q37 0 63-26t26-63v-54h214v54q0 37 27 63t63 26h35q37 0 64-26t26-63v-54h71q29 0 50-21t22-50z" horiz-adv-x="928.6" />

<glyph glyph-name="list-add" unicode="&#xe81e;" d="M350 400q22 0 36-15t14-35-15-35-35-15l-300 0q-20 0-35 15t-15 35 14 35 36 15l300 0z m0-200q22 0 36-15t14-35-15-35-35-15l-300 0q-20 0-35 15t-15 35 14 35 36 15l300 0z m620 200q30 0 30-50t-30-50l-170 0 0-170q0-30-50-30t-50 30l0 170-164 0q-30 0-30 50t30 50l164 0 0 170q0 30 50 30t50-30l0-170 170 0z m-620 200q22 0 36-15t14-35-15-35-35-15l-300 0q-20 0-35 15t-15 35 14 35 36 15l300 0z" horiz-adv-x="1000" />

<glyph glyph-name="heart" unicode="&#xe81f;" d="M500-79q-14 0-25 10l-348 336q-5 5-15 15t-31 37-38 54-30 67-13 77q0 123 71 192t196 70q34 0 70-12t67-33 54-38 42-38q20 20 42 38t54 38 67 33 70 12q125 0 196-70t71-192q0-123-128-251l-347-335q-10-10-25-10z" horiz-adv-x="1000" />

<glyph glyph-name="heart-empty" unicode="&#xe820;" d="M929 517q0 46-12 80t-31 55-46 33-52 18-55 4-62-14-62-36-48-40-34-34q-10-13-27-13t-27 13q-14 15-34 34t-48 40-62 36-62 14-55-4-52-18-46-33-31-55-12-80q0-93 105-198l324-312 324 312q105 105 105 198z m71 0q0-123-128-251l-347-335q-10-10-25-10t-25 10l-348 336q-5 5-15 15t-31 37-38 54-30 67-13 77q0 123 71 192t196 70q34 0 70-12t67-33 54-38 42-38q20 20 42 38t54 38 67 33 70 12q125 0 196-70t71-192z" horiz-adv-x="1000" />

<glyph glyph-name="basket" unicode="&#xe821;" d="M357-7q0-29-21-50t-50-22-50 22-22 50 22 50 50 21 50-21 21-50z m500 0q0-29-21-50t-50-22-50 22-22 50 22 50 50 21 50-21 21-50z m72 607v-286q0-13-10-23t-22-12l-583-68q7-34 7-40 0-8-13-35h513q15 0 26-11t10-25-10-25-26-11h-571q-14 0-25 11t-11 25q0 6 5 18t9 20 12 22 8 17l-98 459h-114q-15 0-25 10t-11 25 11 26 25 10h143q9 0 16-3t10-9 8-14 4-14 3-17 3-14h670q14 0 25-11t11-25z" horiz-adv-x="928.6" />

<glyph glyph-name="location" unicode="&#xe822;" d="M429 493q0 59-42 101t-101 42-101-42-42-101 42-101 101-42 101 42 42 101z m142 0q0-61-18-100l-203-432q-9-18-27-29t-37-11-38 11-26 29l-204 432q-18 39-18 100 0 118 84 202t202 84 202-84 83-202z" horiz-adv-x="571.4" />

<glyph glyph-name="location-1" unicode="&#xe823;" d="M250 750q104 0 177-73t73-177q0-106-62-243t-126-223l-62-84q-10 12-27 35t-60 89-76 130-60 147-27 149q0 104 73 177t177 73z m0-388q56 0 96 40t40 96-40 95-96 39-95-39-39-95 39-96 95-40z" horiz-adv-x="500" />

<glyph glyph-name="cancel-1" unicode="&#xe824;" d="M724 112q0-22-15-38l-76-76q-16-15-38-15t-38 15l-164 165-164-165q-16-15-38-15t-38 15l-76 76q-16 16-16 38t16 38l164 164-164 164q-16 16-16 38t16 38l76 76q16 16 38 16t38-16l164-164 164 164q16 16 38 16t38-16l76-76q15-15 15-38t-15-38l-164-164 164-164q15-15 15-38z" horiz-adv-x="785.7" />

<glyph glyph-name="clients_comp" unicode="&#xe825;" d="M1187 181c-14 6-29 12-43 19-34 16-55 26-66 32l-1 40c10 12 23 36 30 74 2 1 3 2 5 4 18 14 31 42 32 61 0 5 2 52-19 75 2 27 4 48 3 62-6 71-69 144-163 144-94 0-156-73-162-144-2-14 0-35 3-62-22-23-20-69-19-75 1-19 13-48 32-62 1-1 3-2 4-3 8-39 20-62 30-75l-1-58c0-17 12-31 28-31 0 0 0 0 0 0 16 0 28 14 29 30l0 71c0 10-3 18-10 24 0 0-17 17-23 68-1 9-6 17-13 22-4 3-9 5-14 5-3 3-6 10-6 13-1 7 0 16 2 23 4 1 7 3 10 6 7 7 10 17 9 27-2 17-7 56-5 70 4 44 45 89 107 89 62 0 103-45 106-89 2-14-3-54-5-70-1-10 2-20 9-27 3-3 7-5 11-6 1-7 2-16 2-23-1-4-4-10-6-13-6-1-10-2-15-5-7-5-11-13-13-22-5-50-22-67-22-67 0 0 0 0 0 0-7-6-11-15-11-25l1-71c0-10 5-20 13-26 2-1 20-12 87-43 15-7 30-13 44-19 41-17 88-37 98-55 7-13 11-70 10-133h-310c-15 0-28-14-28-30 0-17 13-31 28-31h337c15 0 27 13 28 29 2 48 4 162-17 198-22 35-70 55-126 79z m9 16c-36 15-73 32-109 50 3-5 6-10 9-16 0 7 0 14 0 20 0 5 0 10 0 14 0 12 0-1-1-1 1-1 14 26 15 28 7 16 11 32 15 49-3-3-6-7-9-11 53 34 62 122 21 169 2-4 4-9 6-13 5 44 5 84-15 125-18 36-49 67-87 83-83 37-183 8-231-70-27-44-28-89-23-138 2 4 4 9 6 13-41-48-31-133 21-169-3 4-6 8-9 11 5-24 13-47 25-69 1-1 2-3 3-4 3-4 1-5 2 0 1 6-1 2-1 0 0-7 0-14 0-21 0-12-1-24 0-36 1-23 18-44 42-47 22-2 41 13 48 34 4 12 2 25 2 37 0 14 1 29 1 43 0 17-5 30-16 43-2 2 2-3 0 0-2 2-4 5-5 7-4 9-7 18-9 27-3 14-3 29-10 42-9 15-23 21-39 24 5-3 11-7 16-10-5 8-4 14-2 22-3-3-6-7-9-11 39 18 26 63 24 96-2 30 5 56 30 75 53 41 148 11 146-63-1-35-20-89 23-108-2 4-5 7-8 11 1-8 2-15-2-22 5 3 10 6 15 9-16-2-30-8-38-23-8-13-7-30-11-44-3-10-5-19-10-27-1-2-3-5-4-7 3 5 0 0-2-2-9-11 3-27 16-27 0 0 0 0 0 0-4 10-8 20-13 31-21-22-16-54-16-82 1-27-1-53 25-69 21-14 46-25 70-36 25-12 51-22 77-33 22-10 47-19 66-34 3-2 6-4 8-7-1 2 1-2 1-5 2-9 3-18 4-27 2-31 3-61 2-92 6 6 12 13 19 19-67 0-134 0-200 0-33 0-66 0-100 0-13 0-25-1-36-9-26-20-26-61 0-80 19-15 51-9 73-9 42 0 84 0 126 0 41 0 82 0 123 0 25 0 56-5 75 15 19 22 13 64 13 91 0 34-1 68-6 102-5 29-15 53-37 73-32 28-72 43-110 59-9 4-19 3-25-7-4-8-2-21 7-25 47-20 114-40 127-97 10-50 8-103 7-153 0-13-2-22-15-22-9-1-19 0-28 0-35 0-71 0-106 0-64 0-129-3-194 0-11 0-20 15-8 23 4 3 13 2 18 2 31 0 62 0 93 0 68 0 135 0 203 0 10 0 18 8 18 18 0 26 0 52-2 78 0 17-1 36-6 53-10 36-63 53-94 66-42 18-83 36-124 57-13 7-26 10-26 27-1 14-1 28-1 42 0 11-3 27 6 35 11 12 2 32-13 32 0 0 0 0 0 0 5-9 11-19 16-28-6-7 1 1 3 4 3 6 6 12 9 18 3 8 5 16 8 24 2 10 1 28 7 35 4 5 10 3 16 6 4 3 7 7 9 12 6 10 6 20 5 32 0 5-1 13-4 18-2 4-6 5-10 8-10 7-6 18-5 28 4 37 8 73-12 106-23 36-62 57-105 59-42 2-83-17-108-51-24-32-23-67-19-104 1-8 3-17 3-25-1-14-15-13-19-26-6-19-4-50 17-58 5-3 10-2 13-8 2-5 2-12 3-17 2-10 4-21 8-31 4-11 9-23 17-33 12-14 6-43 6-61 0-8 2-19-1-26-6-15-19-4-19 7 0 12 0 25 0 37 0 12 2 21-4 31-11 17-18 34-22 54-2 6-2 13-5 18-3 5-9 7-13 11-8 7-13 17-17 27-5 13-5 25-4 39 1 8 2 15 4 23 3 9 9 15 13 24 4 10 0 25-1 36 0 10-1 20 0 30 1 17 6 35 14 50 40 76 139 102 211 54 31-20 53-52 61-88 4-19 2-39 1-59-2-13-3-20 5-31 5-8 8-16 10-25 7-32 0-62-25-84-10-9-10-20-14-33-2-10-6-20-11-29-6-13-14-21-14-36 0-11 1-22 1-33 0-6 3-12 9-15 35-19 72-35 109-51 9-4 19-3 25 7 3 7 1 21-8 25z m-474 27c-17 7-34 14-51 22-43 19-67 32-81 39l0 52c11 14 27 42 35 89 3 1 5 3 8 5 20 16 33 47 35 68 0 6 2 61-23 85 4 33 5 58 4 74-7 81-79 165-186 165-107 0-179-84-186-165-2-16 0-41 3-74-25-24-23-79-22-85 1-21 14-53 35-69 2-1 5-3 7-4 9-47 25-75 35-89l0-52c-14-7-38-20-81-39-17-8-34-15-50-22-66-27-122-51-145-91-24-41-22-173-20-229 1-16 13-29 28-29 17 0 29 15 29 32-3 78 0 174 10 193 14 23 67 45 118 67 17 7 34 14 52 22 78 36 99 49 101 51 8 5 14 15 14 26l0 83c0 9-4 18-11 24 0 0-21 21-28 83-1 9-5 17-12 22-5 3-11 5-17 4-4 5-9 16-10 21 0 10 1 24 4 31 4 2 9 4 13 8 6 7 10 16 9 26-3 22-8 67-7 84 5 54 55 109 131 109 75 0 125-55 130-109 1-18-4-62-6-84-2-10 2-19 8-26 4-4 9-7 14-8 2-7 3-21 3-32-1-5-6-15-10-20-5 0-12-1-17-5-6-5-11-13-12-22-8-61-28-82-28-82-7-6-11-15-11-25l0-83c0-10 6-20 14-26 2-1 23-14 101-50 18-8 35-15 52-22 51-22 104-45 118-68 8-15 12-92 11-163h-752c-15 0-9-15-9-32s-16-29-1-29h790c15 0 27 13 28 29 2 56 4 188-19 229-24 40-80 64-145 91z m9 16c-45 19-89 38-131 61 3-6 6-11 9-16 0 8 0 17 0 26 0 5 0 11-1 17 0 1 1 4 0 6-1 6 1-2 0-1-2-4-1-5 1-2 0 1 1 2 2 3 2 3 3 6 5 9 3 6 6 12 9 19 8 19 14 38 18 59-3-4-6-7-9-11 32 19 51 57 52 94 1 32-5 69-28 93 2-4 4-8 5-13 6 50 7 95-14 141-20 43-56 78-99 98-94 42-210 9-264-81-13-22-22-46-26-71-4-29-1-58 2-87 2 5 4 9 6 13-23-24-29-61-28-93 1-37 20-75 51-94-2 4-5 7-8 11 4-21 9-40 18-59 2-7 5-13 9-19 1-3 3-5 4-7 1-2 2-3 3-5 2-3 2-2 1 2-1-1 0 6-1 1 0-2 0-4 0-6 0-6 0-11 0-17 0-9 0-18 0-26 3 5 6 10 9 16-52-28-107-50-161-74-48-21-108-47-128-100-17-45-16-98-16-145-1-24 0-47 0-70 1-27 16-56 47-56 34 0 47 32 46 61-1 33-1 66 1 100 0 23 1 47 7 70 1 6 5 9 13 16 13 9 28 16 42 23 60 29 123 52 182 83 27 14 50 26 51 60 0 19 0 39 0 58 1 23 1 41-16 60-1 0-1 1-2 1 4-4-1 3-2 5-6 9-9 19-12 29-5 17-4 36-11 52-9 17-24 26-43 27 5-3 11-6 16-9-9 12-8 24-5 38-4-4-9-9-13-13 51 17 32 73 29 114-2 37 13 70 44 92 67 46 181 8 180-82-1-41-25-107 29-124-5 4-9 9-13 13 3-14 4-26-5-38 5 3 11 6 16 9-17-1-32-8-41-23-8-16-8-35-12-52-3-10-6-20-11-30-1-3-3-6-5-8-3-4 2 2-1-1-14-17-16-32-16-53 0-20 0-40 1-60 0-20 5-38 23-50 9-6 18-10 27-15 64-33 133-57 196-90 14-7 30-14 39-26 5-5 0 2 2-3 1-2 1-4 2-6 1-6 2-12 2-18 5-43 5-86 5-129 6 6 12 12 18 18-121 0-241 0-362 0-85 0-170 0-254 0-45 0-90 2-134 0-17 0-30-10-31-28 0-7 2-15 1-22 0-6-4-11-5-16-6-16 3-30 19-31 11-2 21-1 32-1 62 0 124 0 186 0 166 0 332 0 499 0 21 0 42 0 63 0 25 0 49 6 58 35 3 11 2 24 3 36 0 14 0 28 0 43 0 29-1 59-3 88-3 25-5 52-16 76-11 25-33 43-56 58-31 19-66 33-100 47-9 4-20 3-25-7-5-7-3-21 6-25 34-14 69-28 100-48 19-12 37-28 44-50 15-50 13-107 13-159 0-13 6-54-11-58-2-1-5 0-8 0-17 0-35 0-53 0-154 0-308 0-463 0-69 0-137 0-206 0-17 0-35 0-52 0-2 0-6 1-7 0 0 0 0 0 0 0 5-18 9-24 12-16 2 2 3 8 4 11 2 6 3 13 3 20 0 4 1 16-1 18-3-3-6-5-8-8 0 0 0 0 0 0 0 0 0 0 0 0 2-2 8 0 10 0 8 0 17 0 25 0 26 0 53 0 79 0 79 0 158 0 236 0 132 0 263 0 395 0 2 0 5 0 7 0 10 0 18 8 18 18 1 34 1 69-2 103-1 21-1 46-10 66-10 22-37 36-58 47-32 16-66 29-99 44-39 17-82 33-118 57-7 4-9 10-9 19 0 17 0 34 0 51 0 13-3 26 5 37 8 10 14 20 18 32 5 11 9 23 11 35 3 14 0 32 15 37 15 5 22 14 26 29 5 14 3 32-1 45-4 15-22 12-22 28 0 13 3 26 4 38 3 24 5 48-1 71-14 50-57 89-107 101-55 13-116-3-153-47-16-18-28-40-32-64-4-24 0-48 2-71 1-10 7-29 1-37-5-6-13-6-17-13-4-6-4-14-5-21-2-15-1-28 6-41 3-6 7-12 12-15 7-4 15-1 19-10 3-6 3-15 4-22 1-7 3-14 5-21 3-11 7-22 12-33 4-9 17-20 19-30 2-12 0-27 0-39 0-15 1-30-1-45 0-10-4-12-12-16-14-8-29-15-44-22-30-15-60-29-91-42-32-13-64-26-94-43-18-11-39-24-45-45-6-21-7-45-8-66-2-31-2-62-2-93 0-11 6-34-1-43-10-11-17 3-17 11-4 47-2 95 2 142 1 21 4 42 10 62 6 20 23 35 40 46 54 36 119 56 178 84 19 8 38 17 56 27 6 3 9 10 9 16 0 13 1 27 1 40 0 4 0 8 0 12-1 10-8 17-13 25-6 9-10 19-13 30-2 6-4 12-6 18-2 8-2 18-6 25-3 5-9 8-13 11-5 4-8 8-11 13-8 11-13 23-15 36-2 14-1 29 1 42 2 9 4 19 9 27 3 5 8 8 10 14 4 7 0 18 0 26-2 22-4 46 0 68 5 22 13 42 26 60 58 86 186 97 259 25 30-30 49-72 49-115 0-12-1-24-2-36-1-7-3-16-2-24 1-7 6-11 10-17 10-15 12-36 12-55 0-20-6-40-19-56-5-6-11-9-16-14-8-6-8-14-10-23-3-14-7-27-13-40-7-16-20-29-20-47 0-15 0-30 0-45 0-6 4-13 10-16 42-23 86-42 131-61 9-4 19-3 25 7 4 8 2 21-7 25z" horiz-adv-x="1353" />

<glyph glyph-name="cms_comp" unicode="&#xe826;" d="M896 528c0 64-52 117-118 117-33 0-64-15-86-37l-118 67c3 11 5 23 5 34 0 63-52 116-118 116s-118-52-118-116c0-12 1-23 5-34l-118-67c-22 22-52 37-86 37-65 0-118-52-118-117 0-54 39-101 91-112v-138c-52-12-91-59-91-113 0-64 52-117 118-117 34 0 65 15 86 37l118-67c-3-11-5-23-5-34 0-63 52-116 118-116s118 52 118 116c0 12-1 23-5 34l118 67c22-22 53-37 86-37 65 0 118 52 118 117 0 54-39 101-91 113v138c54 11 91 58 91 112z m-434 243c35 0 65-28 65-63 0-35-28-64-65-64-36 0-64 28-64 64s29 63 64 63z m-380-243c0 35 28 64 65 64 35 0 64-28 64-64 0-34-28-63-64-63-37 1-65 29-65 63z m63-427c-35 0-64 28-64 64 0 34 28 63 64 63 35 0 65-28 65-63 0-36-30-64-65-64z m317-179c-35 0-64 28-64 63 0 35 28 64 64 64 37 0 65-28 65-64s-30-63-65-63z m199 243c0-11 1-23 5-32l-118-68c-21 23-52 37-86 37-33 0-64-14-86-37l-118 68c3 11 6 21 6 32 0 54-40 101-92 113v138c52 12 92 58 92 112 0 11-2 23-6 32l118 68c22-23 53-37 86-37 34 0 65 14 86 37l118-68c-2-10-5-21-5-32 0-54 39-101 92-112v-138c-53-12-92-59-92-113z m182 0c0-35-29-64-65-64-35 0-65 28-65 64 0 34 29 63 65 63 36-1 65-29 65-63z m-64 301c-35 0-64 28-64 63 0 35 28 64 64 64 35 0 65-28 65-64-1-35-30-63-65-63z m132 62c0 51-30 99-77 120-52 23-112 11-153-30 7 1 13 2 19 3-40 22-79 45-118 67 2-5 4-11 7-17 8 34 7 67-10 98-14 27-38 49-67 61-59 25-129 3-164-51-20-31-26-73-14-108 2 6 4 11 7 17-40-23-79-45-119-68 6 0 12-1 19-2-49 49-127 55-181 12-50-40-64-113-31-168 19-31 49-53 84-61-4 4-7 9-11 14 0-46 0-92 0-138 4 5 7 10 11 15-62-15-108-75-101-140 6-64 58-113 122-119 40-3 79 13 107 41-6-1-12-1-19-2 40-23 79-45 119-68-3 6-5 12-7 17-9-34-8-66 9-98 14-27 38-49 67-61 59-24 129-2 164 52 20 31 27 72 15 108-3-6-5-12-7-17 39 22 78 45 118 67-6 1-12 2-19 2 49-49 127-55 181-11 50 40 64 113 31 168-19 31-49 53-84 61 4-5 7-10 11-14 0 46 0 91 0 138-4-5-7-10-11-15 60 14 101 66 102 127 1 20-29 20-30 0 0-48-33-87-80-98-6-1-11-8-11-14 0-47 0-92 0-138 0-7 5-13 11-15 64-16 101-87 68-146-33-62-118-71-166-21-5 4-13 5-19 2-39-23-78-45-118-68-5-3-9-10-7-17 23-64-31-130-96-131-32 0-62 14-82 38-23 27-27 60-19 93 2 7-1 14-7 17-39 23-78 45-118 68-6 3-13 2-18-2-49-50-133-41-167 22-32 59 5 129 69 145 6 2 11 8 11 15 0 46 0 91 0 138 0 6-5 13-11 14-64 15-101 86-68 146 33 62 118 71 166 21 5-4 13-5 18-2 40 23 79 45 119 68 5 3 9 10 7 17-23 64 31 130 96 131 32 0 62-14 82-38 23-27 27-60 19-93-2-7 1-14 7-17 39-23 78-45 118-68 6-3 13-2 18 2 31 32 79 43 119 23 36-17 59-52 60-92 0-19 30-19 29 0z m-449 228c27-1 50-21 50-48 0-28-24-50-51-49-26 1-47 21-48 47-1 28 22 49 49 50 20 1 20 31 0 30-33-1-62-20-74-51-12-30-2-67 23-88 25-21 62-24 90-8 30 16 46 50 39 83-6 38-40 63-78 64-19 1-19-29 0-30z m-365-228c1 27 22 49 50 49 26 0 49-22 49-49 0-26-23-49-49-48-27 0-49 22-50 48-1 20-31 20-30 0 2-71 94-106 140-50 21 25 25 62 8 90-17 29-50 43-83 38-38-7-64-40-65-78-1-19 29-19 30 0z m48-412c-26 1-49 21-49 49 0 26 23 48 49 48 27 0 50-22 50-48 0-28-23-48-50-49-19 0-19-31 0-30 33 1 63 20 75 51 11 31 2 67-24 88-25 21-62 24-91 7-29-17-44-50-38-82 6-38 41-64 78-64 20-1 20 30 0 30z m317-179c-26 1-49 21-49 48 0 28 24 50 51 49 26-1 47-21 48-47 0-28-22-49-50-50-19-1-19-31 0-30 33 1 63 20 75 51 12 30 2 67-23 88-25 21-62 24-91 8-29-16-45-50-39-83 7-38 41-63 78-64 20-1 20 29 0 30z m184 228c0-12 2-24 6-36 2 6 5 11 7 17-39-22-79-45-118-68 6 0 12-1 18-2-53 55-140 55-193 0 6 1 12 2 18 2-39 23-79 46-118 68 2-6 5-11 7-17 9 37 6 74-15 106-19 29-48 49-82 57 4-5 8-10 11-14 0 46 0 91 0 138-3-5-7-10-11-15 68 17 124 93 97 163-2-6-5-11-7-17 39 23 79 45 118 68-6 0-12 1-18 2 53-54 140-54 193 0-6-1-12-2-18-2 39-23 79-45 118-68-2 6-5 11-7 17-9-37-6-74 15-106 19-29 48-49 82-57-4 5-8 10-11 15 0-47 0-92 0-138 3 4 7 9 11 14-59-14-102-66-103-127 0-19 30-19 30 0 1 48 35 87 81 98 6 2 11 8 11 15 0 46 0 91 0 138 0 6-5 13-11 14-26 6-49 21-64 43-17 26-19 53-12 83 1 7-1 14-7 17-39 23-79 45-118 68-6 3-14 2-19-2-42-43-108-43-150 0-5 4-13 5-19 2-39-23-78-45-118-68-5-3-9-11-7-17 22-55-22-113-75-126-7-1-11-8-11-14 0-47 0-92 0-138 0-7 4-13 11-15 25-6 48-21 63-43 17-26 19-53 12-83-1-7 1-14 7-17 40-23 79-45 118-68 6-3 14-2 19 2 42 43 108 43 150 0 5-4 13-5 19-2 39 23 79 45 118 68 5 3 9 11 7 17-4 9-5 18-5 28 0 19-30 19-30 0z m181 0c0-27-22-49-49-49-27 0-49 22-50 49 0 26 23 49 50 48 27 0 49-22 49-48 1-19 31-19 31 0-2 71-94 106-141 50-21-25-25-62-8-90 17-29 51-43 83-38 38 7 64 41 65 78 1 19-29 19-30 0z m-48 316c-26 1-49 21-49 48 0 27 23 49 49 49 26 0 51-22 50-49-1-26-23-47-50-48-19-1-19-31 0-30 33 1 62 20 74 51 13 31 3 67-22 88-26 21-63 24-92 7-28-17-43-50-38-82 7-38 41-64 78-64 20-1 20 29 0 30z" horiz-adv-x="925" />

<glyph glyph-name="commissions_comp" unicode="&#xe827;" d="M756 828h-665c-37 0-67-30-67-67v-825c0-38 30-67 67-67h665c37 0 67 30 67 67v825c0 37-30 67-67 67z m14-892c0-8-6-13-14-13h-665c-8 0-13 5-13 13v825c0 8 5 13 13 13h665c8 0 14-5 14-13v-825z m-14 907c-102 0-205 0-308 0-117 0-235 1-352 0-33 0-64-15-79-46-7-15-8-32-8-49 0-44 0-87 0-131 0-149 0-297 0-446 0-60 0-119 0-179 0-34-6-76 16-105 30-40 79-33 122-33 66 0 131 0 196 0 131 0 261 0 392 0 12 0 24-1 36 1 41 7 67 42 68 82 0 33 0 66 0 99 0 146 0 291 0 436 0 96 2 192 0 288-2 47-37 82-83 83-20 1-20-30 0-31 32-1 51-25 51-55 0-12 0-24 0-36 0-54 0-107 0-160 0-147 0-294 0-442 0-50 0-101 0-151 0-10 0-20 0-31 0-29-22-51-51-52-105-2-210 0-314 0-115 0-230 0-345 0-28 0-53 15-57 44-1 8 0 17 0 26 0 45 0 90 0 136 0 146 0 292 0 437 0 58 0 116 0 174 0 16 0 32 0 47 0 16 1 31 11 45 14 16 32 18 52 18 18 0 36 0 54 0 64 0 129 0 193 0 128 0 256 0 384 0 7 0 15 0 23 0 19 0 19 31-1 31z m-2-907c1 10 3 0 1 2 0 1-4 0-4 0-6 0-11 0-16 0-20 0-40 0-60 0-63 0-126 0-188 0-123 0-245 0-368 0-8 0-19 2-28 0 4 1 0-4 2 0 1 2 0 8 0 11 0 38 0 77 0 115 0 137 0 274 0 411 0 62 0 123 0 184 0 21 0 42 0 64 0 11 2 23 0 34-1 6 2 2-2 2 1 0 4 0 5 0 14 0 28 0 42 0 56 0 113 0 169 0 131 0 262 0 392 0 16 0 32 0 47 0 3 0 6 0 9 0-3-1 0 4-2 0-1-2 0-8 0-10 0-7 0-13 0-19 0-20 0-40 0-60 0-132 0-263 0-395 0-107 0-214 0-321 1-7 1-12 1-18 0-20 31-20 31 0 0 83 0 166 0 249 0 142 0 284 0 426 0 44 0 87 0 131 0 7 0 13 0 19-1 25-21 29-40 29-117 0-234 0-351 0-68 0-135 0-203 0-33 0-66 1-99 0-38-1-30-46-30-72 0-52 0-104 0-156 0-143 0-287 0-430 0-51 0-103 0-155 0-25-8-68 30-70 34-1 68 0 102 0 68 0 136 0 203 0 116 0 232 0 348 0 20 0 38 5 40 29 2 20-29 20-31 0z m-545 650c86 0 171 0 257 0 12 0 24 0 36 0-5 5-10 10-16 15 0-17 0-35 0-53 6 5 11 11 16 16-85 0-171 0-256 0-13 0-25 0-37 0 5-5 11-11 16-16 0 18 0 36 0 53 0 20-31 20-31 0 0-17 0-35 0-53 0-8 7-15 15-15 86 0 171 0 257 0 12 0 24 0 36 0 8 0 16 7 16 15 0 18 0 36 0 53 0 9-7 16-16 16-85 0-171 0-256 0-13 0-25 0-37 0-20 0-20-31 0-31z m-5-213c128 0 256 0 384 0 19 0 37 0 55 0-5 5-10 10-16 15 0-17 0-35 0-53 6 5 11 11 16 16-128 0-256 0-385 0-18 0-36 0-54 0 5-5 10-11 15-16 0 18 0 36 0 53 0 20-31 20-31 0 0-17 0-35 0-53 0-8 7-15 16-15 128 0 256 0 384 0 19 0 37 0 55 0 8 0 15 7 15 15 0 18 0 36 0 53 0 9-7 16-15 16-128 0-256 0-385 0-18 0-36 0-54 0-20 0-20-31 0-31z m0-213c128 0 256 0 384 0 19 0 37 0 55 0-5 5-10 10-16 16 0-18 0-36 0-54 6 5 11 11 16 16-128 0-256 0-385 0-18 0-36 0-54 0 5-5 10-11 15-16 0 18 0 36 0 54 0 19-31 19-31 0 0-18 0-36 0-54 0-8 7-15 16-15 128 0 256 0 384 0 19 0 37 0 55 0 8 0 15 7 15 15 0 18 0 36 0 54 0 8-7 15-15 15-128 0-256 0-385 0-18 0-36 0-54 0-20 0-20-31 0-31z m17 416c91 0 181 0 272 0 20 0 20 32 0 32-91 0-181 0-272 0-20 0-20-32 0-32l0 0z m-1-14c92 0 185 0 277 0 20 0 20 31 0 31-92 0-185 0-277 0-20 0-20-31 0-31l0 0z m276 7c-93 0-186 0-279 0-20 0-20-31 0-31 93 0 186 0 279 0 20 0 20 31 0 31l0 0z m-299 19c1-16 4-30 9-44 6-15 25-15 30 0 5 11 9 23 13 35-9-1-18-3-28-4 5-8 11-15 16-23 5-8 17-11 24-3 8 7 15 16 22 25-10 1-19 2-29 4 4-14 17-21 31-18 6 1 12 3 17 8 5 4 9 12 16 14-6 3-12 5-18 7 6-12 12-25 17-37 6-12 21-8 27 0 9 12 20 22 31 31-8 1-17 2-25 3 8-12 16-25 24-38 6-10 20-9 27 0 5 8 10 15 15 22-8-1-17-2-25-3 10-10 21-25 36-25 14-1 26 11 33 22 1 0 2 1 3 2 2 1 1 2-4 3 0-2 4-6 5-7 3-5 8-9 14-11 11-3 25 2 27 15 3 20-26 28-30 8 5 8 10 9 14 5-1 1-2 3-3 5-3 4-6 8-10 10-8 5-17 5-25 1-8-4-13-10-19-17-2-2-3-4-6-6 3 1 3 3-1 5-2 4-8 8-12 12-7 7-19 5-24-3-5-7-10-15-15-22 9 0 18 0 27 0-8 13-16 25-24 38-5 9-16 10-24 3-13-11-25-24-35-38 9 0 18 0 27 0-6 13-12 26-17 38-3 6-12 9-18 7-8-2-14-6-20-12-2-2-6-5-8-8 0-1 0-2-1-1-3-1-2-3 3-5-4 14-21 14-28 3-5-7-11-13-17-18 8-1 16-2 24-3-5 7-10 15-15 23-8 11-24 9-29-4-4-11-8-23-13-35 10 0 20 0 30 0-4 12-7 23-8 36-2 19-33 20-31 0l0 0z m20-242c138 0 277 0 415 0 20 0 20 31 0 31-138 0-277 0-415 0-20 0-20-31 0-31l0 0z m418 42c-91 5-181 3-272-5-19-2-20-33 0-32 91 9 181 10 272 5 20-1 20 31 0 32l0 0z m-409 157c85 0 171 0 257 0 40 0 40 62 0 62-86 0-172 0-257 0-40 0-40-62 0-62l0 0z m120-207c89 0 177 0 266 0 39 0 40 62 0 62-89 0-177 0-266 0-40 0-40-62 0-62l0 0z m-123-219c135 0 270 0 405 0 40 0 41 63 0 63-119 0-238 0-357 0-40 0-40-63 0-63 119 0 238 0 357 0 40 0 41 63 0 63-135 0-270 0-405 0-40 0-40-63 0-63l0 0z" horiz-adv-x="848" />

<glyph glyph-name="dashboard_comp" unicode="&#xe828;" d="M406 823h-347c-19 0-34-15-34-34v-347c0-18 15-33 34-33h347c19 0 33 15 33 33v347c1 19-14 34-33 34z m-33-347h-281v280h281v-280z m570 347h-347c-19 0-34-15-34-34v-347c0-18 15-33 34-33h347c18 0 33 15 33 33v347c1 19-15 34-33 34z m-33-347h-281v280h281v-280z m-504-190h-347c-19 0-34-15-34-33v-348c0-18 15-33 34-33h347c19 0 33 15 33 33v347c1 19-14 34-33 34z m-33-347h-281v280h281v-280z m570 347h-347c-19 0-34-15-34-33v-348c0-18 15-33 34-33h347c18 0 33 15 33 33v347c1 19-15 34-33 34z m-33-347h-281v280h281v-280z m-504 900c-110 0-220 0-330 0-26 0-52-3-63-32-7-15-4-35-4-52 0-67 0-135 0-203 0-29 0-57 0-86 0-22-2-44 16-61 16-15 38-13 59-13 29 0 58 0 87 0 68 0 136 0 203 0 17 0 38-3 54 5 26 13 28 38 28 62 0 64 0 129 0 193 0 46 2 93 0 139-2 28-23 47-50 48-21 1-21-31 0-32 21-2 17-27 17-41 0-27 0-55 0-81 0-66 0-131 0-197 0-15 1-30 0-45-1-20-19-18-34-18-59 0-119 0-178 0-50 0-100-2-150 0-18 1-20 14-20 29 0 23 0 46 0 69 0 66 0 133 0 199 0 21 0 41 0 62 0 7 0 14 7 19 5 4 11 4 17 4 111 0 221 0 331 0 4 0 6 0 10 0 21 0 21 32 0 32z m-33-347c-82 0-164 0-246 0-11 0-23 0-35 0 6-6 11-11 17-16 0 81 0 163 0 245 0 12 0 23 0 35-6-6-11-11-17-17 82 0 164 0 246 0 12 0 23 0 35 0-6 6-11 11-17 17 0-82 0-164 0-246 0-11 0-23 0-34 0-21 33-21 33 0 0 81 0 163 0 245 0 12 0 23 0 35 0 8-7 16-16 16-82 0-164 0-246 0-11 0-23 0-35 0-8 0-16-7-16-16 0-82 0-164 0-246 0-11 0-23 0-34 0-9 7-17 16-17 82 0 164 0 246 0 12 0 23 0 35 0 21 0 21 33 0 33z m570 347c-110 0-220 0-330 0-26 0-52-3-63-32-7-15-4-35-4-52 0-67 0-135 0-203 0-29 0-57 0-86 0-22-2-44 16-61 16-15 38-13 59-13 29 0 58 0 87 0 68 0 136 0 203 0 17 0 38-3 54 5 26 13 28 38 28 62 0 64 0 129 0 193 0 46 2 93 0 139-2 28-23 47-50 48-21 1-21-31 0-32 21-2 17-27 17-41 0-27 0-55 0-81 0-66 0-131 0-197 0-15 1-30 0-45-1-20-19-18-34-18-59 0-119 0-178 0-50 0-100-2-150 0-18 1-20 14-20 29 0 23 0 46 0 69 0 66 0 133 0 199 0 21 0 41 0 62 0 7 0 14 7 19 5 4 11 4 17 4 111 0 221 0 331 0 3 0 6 0 10 0 21 0 21 32 0 32z m-33-347c-82 0-164 0-246 0-12 0-23 0-35 0 6-6 11-11 17-16 0 81 0 163 0 245 0 12 0 23 0 35-6-6-11-11-17-17 82 0 164 0 246 0 11 0 23 0 35 0-6 6-11 11-17 17 0-82 0-164 0-246 0-11 0-23 0-34 0-21 33-21 33 0 0 81 0 163 0 245 0 12 0 23 0 35 0 8-7 16-16 16-82 0-164 0-246 0-12 0-23 0-35 0-8 0-16-7-16-16 0-82 0-164 0-246 0-11 0-23 0-34 0-9 7-17 16-17 82 0 164 0 246 0 11 0 23 0 35 0 20 0 20 33 0 33z m-504-190c-110 0-220 0-330 0-26 0-52-3-63-31-7-16-4-36-4-52 0-68 0-136 0-204 0-29 0-57 0-86 0-22-2-44 16-60 16-16 38-14 59-14 29 0 58 0 87 0 68 0 136 0 203 0 17 0 38-2 54 6 26 12 28 37 28 62 0 64 0 128 0 192 0 46 2 93 0 139-2 28-23 47-50 48-21 2-21-31 0-32 21-1 17-26 17-41 0-27 0-54 0-81 0-66 0-131 0-196 0-15 1-31 0-46-1-20-19-18-34-18-59 0-119 0-178 0-50 0-100-2-150 0-18 1-20 14-20 29 0 23 0 46 0 69 0 66 0 133 0 200 0 20 0 40 0 61 0 7 0 14 7 19 5 4 11 4 17 4 111 0 221 0 331 0 4 0 6 0 10 0 21 0 21 32 0 32z m-33-347c-82 0-164 0-246 0-11 0-23 0-35 0 6-5 11-11 17-16 0 82 0 164 0 246 0 11 0 23 0 34-6-5-11-11-17-16 82 0 164 0 246 0 12 0 23 0 35 0-6 5-11 11-17 16 0-82 0-164 0-246 0-11 0-23 0-34 0-21 33-21 33 0 0 82 0 164 0 246 0 11 0 23 0 34 0 9-7 16-16 16-82 0-164 0-246 0-11 0-23 0-35 0-8 0-16-7-16-16 0-82 0-164 0-246 0-11 0-23 0-34 0-9 7-16 16-16 82 0 164 0 246 0 12 0 23 0 35 0 21 0 21 32 0 32z m570 347c-110 0-220 0-330 0-26 0-52-3-63-31-7-16-4-36-4-52 0-68 0-136 0-204 0-29 0-57 0-86 0-22-2-44 16-60 16-16 38-14 59-14 29 0 58 0 87 0 68 0 136 0 203 0 17 0 38-2 54 6 26 12 28 37 28 62 0 64 0 128 0 192 0 46 2 93 0 139-2 28-23 47-50 48-21 2-21-31 0-32 21-1 17-26 17-41 0-27 0-54 0-81 0-66 0-131 0-196 0-15 1-31 0-46-1-20-19-18-34-18-59 0-119 0-178 0-50 0-100-2-150 0-18 1-20 14-20 29 0 23 0 46 0 69 0 66 0 133 0 200 0 20 0 40 0 61 0 7 0 14 7 19 5 4 11 4 17 4 111 0 221 0 331 0 3 0 6 0 10 0 21 0 21 32 0 32z m-33-347c-82 0-164 0-246 0-12 0-23 0-35 0 6-5 11-11 17-16 0 82 0 164 0 246 0 11 0 23 0 34-6-5-11-11-17-16 82 0 164 0 246 0 11 0 23 0 35 0-6 5-11 11-17 16 0-82 0-164 0-246 0-11 0-23 0-34 0-21 33-21 33 0 0 82 0 164 0 246 0 11 0 23 0 34 0 9-7 16-16 16-82 0-164 0-246 0-12 0-23 0-35 0-8 0-16-7-16-16 0-82 0-164 0-246 0-11 0-23 0-34 0-9 7-16 16-16 82 0 164 0 246 0 11 0 23 0 35 0 20 0 20 32 0 32z" horiz-adv-x="1002" />

<glyph glyph-name="financial_comp" unicode="&#xe829;" d="M1279-79h-179v392h-273v507h-325v-333h-275v-566h-178c-13 0-24-11-24-24 0-13 11-25 24-25h1230c14 0 25 12 25 25 0 13-11 24-25 24z m-229 343v-343h-223v343h223z m-273 140l-225-223v132l225 223v-132z m-225-481l225 223v-223h-225z m225 292l-225-223v119l225 223v-21-98z m-36 556l-189-188v188h189z m-189-258l225 223v-132l-225-221v106 24z m-275-75h225c0 0-1-321 0-326v-173c-1-5-1-11 0-16v-2h-225v517z m1002-499c-60 0-119 0-179 0 6-6 12-12 18-18 0 115 0 229 0 344 0 16 0 32 0 48 0 10-8 18-18 18-80 0-159 0-239 0-11 0-23 0-34 0 6-6 12-12 18-18 0 148 0 296 0 444 0 21 0 42 0 63 0 10-8 18-18 18-95 0-189 0-284 0-13 0-27 0-41 0-9 0-18-8-18-18 0-97 0-194 0-291 0-13 0-28 0-41 6 6 12 12 18 18-80 0-160 0-240 0-12 0-23 0-34 0-10 0-18-9-18-18 0-64 0-128 0-192 0-101 0-202 0-304 0-23 0-47 0-71 6 6 12 13 18 19-56 0-111 0-166 0-11 0-22 0-32-6-24-13-30-45-12-65 11-12 25-15 40-15 81 0 162 0 243 0 142 0 285 0 427 0 132 0 265 0 397 0 40 0 81 0 121 0 28 0 65-4 75 32 7 28-15 51-42 53-23 2-23-34 0-36 10-1 7-11-1-13-1 0-4 0-6 0-9 0-18 0-28 0-37 0-74 0-112 0-122 0-244 0-366 0-136 0-272 0-408 0-92 0-183 0-275 0-9 0-19 0-28 0-1 0-4 0-5 0-9 2-10 11-1 13 6 2 14 0 21 0 15 0 29 0 44 0 32 0 64 0 96 0 6 0 11 0 17 0 10 0 18 8 18 18 0 64 0 128 0 192 0 101 0 202 0 304 0 23 0 47 0 70-6-6-12-12-18-18 80 0 160 0 240 0 12 0 23 0 35 0 9 0 18 8 18 18 0 97 0 194 0 291 0 14 0 28 0 42-6-6-12-12-18-18 94 0 189 0 283 0 14 0 27 0 41 0-6 6-12 12-18 18 0-148 0-296 0-444 0-21 0-42 0-63 0-10 8-18 18-18 80 0 159 0 239 0 11 0 23 0 34 0-6 6-12 12-18 18 0-115 0-229 0-344 0-16 0-32 0-48 0-10 8-18 18-18 60 0 120 0 180 0 23 0 23 36 0 36z m-247 325c0-100 0-200 0-300 0-14 0-29 0-43 6 6 12 12 18 18-74 0-149 0-224 0 6-6 12-12 18-18 0 100 0 200 0 299 0 15 0 29 0 44-6-6-12-12-18-18 75 0 150 0 224 0 23 0 23 36 0 36-74 0-149 0-224 0-9 0-18-8-18-18 0-100 0-200 0-300 0-14 0-29 0-43 0-10 8-18 18-18 75 0 150 0 224 0 10 0 18 8 18 18 0 100 0 200 0 299 0 15 0 29 0 44 0 23-36 23-36 0z m-268 153c-65-66-131-131-197-196-9-9-19-18-28-28 10-4 20-8 31-12 0 44 0 88 0 132-2-4-4-8-6-13 66 66 132 131 198 196 9 9 18 18 28 28-11 4-21 8-31 12 0-44 0-88 0-132 0-23 36-23 36 0 0 44 0 88 0 132 0 16-20 24-31 13-44-44-88-88-132-132-26-25-52-51-78-76-5-5-11-10-15-15-8-9-5-21-5-33 0-37 0-75 0-112 0-16 19-24 30-13 66 65 132 131 198 196 9 9 18 18 28 27 16 17-9 42-26 26z m-200-507c66 65 132 131 198 196 9 9 18 18 28 27-11 5-21 9-31 13 0-74 0-149 0-223 6 6 12 12 18 18-75 0-150 0-225 0-24 0-24-36 0-36 75 0 150 0 225 0 10 0 18 8 18 18 0 74 0 149 0 223 0 16-20 24-31 13-65-65-131-131-197-196-9-9-19-18-28-28-17-16 9-41 25-25z m200 318c-65-66-131-131-197-196-9-9-19-18-28-28 10-4 20-8 31-12 0 39 0 79 0 119-2-5-4-9-6-13 66 65 132 130 198 196 9 9 18 18 28 27-11 5-21 9-31 13 0-40 0-79 0-119 0-23 36-23 36 0 0 40 0 79 0 119 0 16-20 24-31 13-43-43-85-85-128-128-26-25-52-51-77-76-6-6-13-12-19-18-6-8-6-16-6-25 0-36 0-72 0-108 0-16 20-24 31-13 65 65 131 130 197 196 9 9 19 18 28 27 16 17-9 42-26 26z m-36 556c-55-55-110-110-166-164-7-8-16-16-23-24 10-4 20-8 30-12 0 62 0 125 0 187-6-6-12-12-18-18 63 0 127 0 190 0 23 0 23 36 0 36-63 0-127 0-190 0-9 0-18-8-18-18 0-62 0-125 0-187 0-16 20-24 31-13 55 55 110 110 166 164 7 8 15 16 23 23 17 17-8 42-25 26z m-164-284c66 66 132 131 198 196 9 9 18 18 28 28-11 4-21 8-31 12 0-43 0-88 0-132 2 5 4 9 5 13-65-65-131-129-197-194-9-9-19-18-28-28 10-4 20-8 31-12 0 43 0 87 0 130 0 23-36 23-36 0 0-43 0-87 0-130 0-16 19-24 30-13 45 44 89 88 134 132 26 25 51 50 77 75 4 5 10 9 15 15 7 9 5 21 5 32 0 38 0 75 0 113 0 16-20 24-31 13-65-66-131-131-197-196-9-9-19-18-28-28-17-16 9-42 25-26z m-287-80c75 0 150 0 225 0-6 6-12 12-18 18 0-72-1-144-1-216 0-34-1-69 1-104 0-3 0-7 1-11-1 11-1-2-1-4 0-19 0-39 0-58 0-41 0-86 0-124 6 6 12 12 18 18-75 0-150 0-225 0 6-6 12-12 18-18 0 58 0 117 0 175 0 93 0 185 0 278 0 22 0 43 0 64 0 23-36 23-36 0 0-58 0-116 0-174 0-93 0-186 0-279 0-21 0-42 0-64 0-9 8-18 18-18 75 0 150 0 225 0 10 0 18 8 18 18 0 35 0 71 0 106 0 22 0 44 0 66 0 5 0 10 0 16 0 1 0 2 0 3 0 15 0-4 0 2-2 78-1 156-1 234 0 30 1 60 1 90 0 10-9 18-18 18-75 0-151 0-226 0-23 0-23-36 1-36z" horiz-adv-x="1326" />

<glyph glyph-name="help_comp" unicode="&#xe82a;" d="M491 146c42-1 42-64 0-64s-41 63 0 64c20 1 20 32 0 32-34-2-63-28-63-64 0-34 29-63 63-63 34 0 64 29 64 63 0 35-29 62-64 64-20 0-20-31 0-32z m-1 84c-9 1-6 15-6 21 0 14 0 29 0 44 0 12 0 24 0 37 0 1-1 4 0 6 3 5 25 4 32 6 41 10 75 45 83 86 9 43-9 87-44 113-36 25-86 27-123 4-19-12-34-29-43-49-2-4-4-9-5-14-1-3-2-10-4-13-2-4-8-5-11 0-2 4 1 13 2 17 25 84 134 116 200 57 37-32 51-82 37-129-13-46-53-79-101-87-6-1-11-8-11-15 0-14 0-29 0-44 1-7 5-39-6-40-20-1-20-33 0-31 20 2 35 14 38 34 0 7 0 15 0 23 0 19 0 39 0 58-4-5-8-10-12-15 103 18 159 133 112 225-46 90-171 110-244 41-26-24-79-108-21-127 12-4 26-2 35 7 10 8 12 19 16 31 7 23 24 42 47 50 44 18 95-9 107-55 11-47-24-93-71-99-15-1-30-1-39-16-4-7-5-14-6-21 0-16 0-31 0-47 0-16 0-32 0-48 1-23 15-39 38-41 20-2 20 29 0 31z m11 567c-186-1-354-119-419-292-65-175-9-380 135-498 145-119 354-135 514-38 161 97 244 288 206 472-36 179-186 323-367 350-23 4-46 6-69 6-20 0-20-32 0-32 172 0 330-110 389-272 60-165 8-352-126-463-134-111-330-124-478-35-148 90-226 268-192 437 34 169 173 301 343 329 21 3 42 4 64 5 20 0 20 31 0 31z m0-905c-191 1-366 122-431 302-66 181-9 388 139 511 148 122 365 137 529 38 163-99 250-295 212-483-38-186-191-332-378-362-23-4-47-6-71-6-20 0-20-31 0-31 203 1 388 130 459 321 72 192 11 416-147 546-159 131-389 149-565 42-176-106-268-316-227-517 39-197 204-356 403-386 26-4 51-6 77-6 20 0 20 31 0 31z m-446 406c-1 0-3 0-5 0-4-2-7-4-10-8-2-3-2-8-1-12 1-4 4-7 7-9 4-2 8-3 12-2 0 0 1 1 1 1-1-1-3-1-4-1 0 0 0 0 0 0 2 0 5 0 6 1 2 1 4 2 5 3 3 3 5 7 5 11 0 5-2 9-5 11-2 3-6 6-11 5l0 0z m-17-33c3-8 4-16 6-24 2-8 8-13 10-20 3-8 11-13 20-11 7 2 13 11 11 19-3 7-8 13-10 20-3 8-4 16-6 25-6 19-36 10-31-9l0 0z m17-58c3-9 7-19 10-29 3-10 6-17 15-23 18-11 33 17 16 27 2-3 2-3 1 1-1 1-1 1-1 2-1 4-3 7-4 11-2 6-4 13-6 20-7 19-37 10-31-9l0 0z m20-57c8-8 13-19 19-29 6-10 14-20 21-30 15-19 28-39 46-54 18-15 33-33 52-46 22-15 46-26 69-38 18-9 34 17 16 27-22 12-44 22-65 36-11 6-19 15-27 23-9 8-17 15-26 23-17 16-31 35-45 54-6 9-13 19-19 29-6 10-11 19-19 27-15 13-37-9-22-22l0 0z m122-163c18-12 39-19 59-28 20-9 42-20 64-26 19-6 27 25 8 30-21 6-41 17-61 25-18 8-37 15-54 26-17 11-33-16-16-27l0 0z m570-17c15 3 29 9 42 15 5 2 10 5 14 9 5 5 8 11 13 16 15 13-7 35-22 22-8-7-11-15-20-20-11-5-23-9-35-12-20-4-11-35 8-30l0 0z m23 25c15 6 28 14 41 23 11 9 21 20 33 27 18 10 2 37-15 27-24-13-41-36-67-47-8-3-13-10-11-19 2-8 12-14 19-11l0 0z m75 69c6 17 32 24 42 37 13 17 21 38 28 57-10 3-20 5-30 8-3-12-7-24-19-31-9-6-19-9-25-20-5-9 1-25 14-23 20 2 19 19 26 34 4 8 10 14 15 21 4 7 6 15 12 20 15 13-7 35-22 22-11-9-14-22-22-33-5-6-9-11-11-18-2-4-4-17-7-20 3 2 7 3 11 5-1 0-2 0-2 0 4-8 9-16 13-24 3 5 10 7 14 9 6 4 11 9 16 14 9 10 13 23 17 36 6 20-23 27-30 9-7-19-16-42-33-54-15-10-31-22-37-40-6-20 24-28 30-9l0 0z m65 217c-4-15-7-30-8-45-2-15-1-34-7-48-9-18 18-34 27-16 7 15 7 32 9 49 2 17 4 34 9 51 6 20-24 28-30 9l0 0z m-1 146c2-24 4-47 7-70 2-12 5-23 5-34 1-12-2-23-6-34-7-19 24-27 30-8 4 11 8 23 8 35 0 12-3 24-5 36-4 25-5 50-8 75-1 19-33 20-31 0l0 0z m-61 162c19-23 29-53 40-80 13-29 27-58 35-89 5-20 35-11 30 8-9 34-25 66-38 98-12 30-24 60-45 85-13 16-35-7-22-22l0 0z m-119 118c20-23 42-44 64-65 21-19 38-43 59-62 15-14 37 8 22 22-10 10-17 26-26 38-9 13-19 25-30 37-10 10-20 21-30 31-11 11-27 15-39 23-16 12-32-15-16-27 11-8 26-11 35-21 10-11 21-21 31-32 10-11 19-23 27-35 9-12 15-26 26-36 7 7 15 15 22 22-21 19-38 43-59 62-22 21-44 42-64 65-12 15-35-7-22-22l0 0z m-244 83c23-1 46-7 68-13 20-6 40-12 60-19 41-14 79-32 115-55 17-11 33 16 16 27-38 25-79 44-122 59-44 14-91 31-137 33-20 0-20-31 0-32l0 0z m-250-76c17 13 40 19 60 26 20 8 40 13 61 16 44 8 88 15 131 24 20 4 12 35-8 30-45-9-91-16-136-24-23-5-45-11-66-19-19-7-41-14-58-26-16-11 0-38 16-27l0 0z m245 108c-37 3-74 1-110-5-17-3-34-6-50-13-15-6-28-17-43-23-14-6-30-7-44-13-14-5-24-14-31-27-4-7-7-14-12-20-5-7-12-12-18-18-15-13-29-27-43-40-15-14 7-36 22-22 13 12 26 24 39 36 12 11 24 21 32 35 8 12 11 23 25 28 14 5 29 7 42 12 13 5 25 14 37 20 15 8 31 11 47 14 35 6 71 7 107 5 20-2 20 30 0 31l0 0z m-355-164c-9-12-14-26-21-40-6-13-11-26-16-40-5-15-13-28-21-41-7-13-13-28-22-40 4 2 7 5 10 7 0 0-1 0-1 0 7-5 13-10 20-15 0 0 0 0 0 1-5-6-11-11-16-16 1 0 1 0 1 0 20 1 20 32 0 31 0 0 0 0-1 0-8 0-16-7-15-15 0-1 0-1 0-1 1-10 9-18 19-15 14 4 19 24 26 36 9 14 17 29 24 44 13 29 21 63 40 89 12 15-15 31-27 15l0 0z m-46-55c-2-11-7-21-11-31-5-12-8-24-13-35-9-22-20-41-23-65-1-20 30-20 32 0 2 22 15 41 23 61 4 10 6 21 11 30 4 11 9 21 11 32 4 19-26 28-30 8l0 0z m-57-136c-2-32-5-63-9-94-4-32 1-62 8-93 4-20 34-12 30 8-6 31-10 59-6 91 4 29 7 58 8 87 1 21-30 21-31 1l0 0z m241-536c77-49 175-46 262-47 26-1 51-2 77 1 21 3 41 10 60 17 37 14 72 31 95 64 9 13-9 29-22 21-30-19-64-29-99-38-38-10-75-20-112-29-20-5-11-35 8-30 39 10 78 19 116 30 36 9 72 20 103 40-7 7-14 14-21 21-20-29-55-42-87-53-20-7-40-13-62-13-22-1-44-1-66 0-79 1-168-1-237 42-17 11-32-16-15-26l0 0z m204 212c-12-7-24-22-23-36 1-18 24-26 36-14 11 11 11 28 5 40-8 14-28 23-38 7-9-12-13-33-2-45 10-10 29-19 43-14 29 12 18 79-17 68-7-2-15-11-19-17-2-3-2-8-3-10 0-1-4-6-5-8-10-15-9-37 11-42 19-6 28 24 8 30 3-8 5-10 7-4 1 1 2 3 3 4 2 2 3 5 4 7 0 0 4 10 3 10-2-4-2-4 1-1 3 3 3 3 1 2-3 0-6 0-9 0-2 0 0 3-1 0 0-2 1-4 1-6 0 0-1-5 0-5 1 1 3 2 5 3-1 0-3 1-4 1-1 1-4 4-5 4-2 1-2 1-1-1 1-3 2-3 2-1 2 2 3 9 4 12-1-2-3-4-4-7 0 1 1 1 1 2-2-1-5-3-7-4 1 0 2 1 2 1-3 0-5 0-8 0 0 0-2 1 0-2 0 0 0 0 0-1 0-2 1-1 3 3 2 0 5 0 8 0 0 0 0 0-1 0 2-2 4-4 6-6 0-5 0-6 1-3 1 1 2 2 2 2 2 2 3 4 6 5 17 9 1 36-16 26l0 0z m16 92c0 15-1 31-1 46 0 8 0 15 0 23 0 6-2 15 1 21-3-3-5-6-8-10 8 6 21 6 30 7 9 2 18 4 27 7 16 5 30 14 38 30 4 8 6 17 10 25 4 9 11 17 14 27 4 9 4 18 4 28 0 11 2 21 3 32 1 19-10 37-20 52-11 17-26 30-44 38-34 15-79 23-115 15-22-4-35-19-46-36-13-20-25-40-32-63-7-19 23-27 30-8 6 19 17 36 28 53 10 16 20 25 40 25 35 1 84-5 108-34 6-7 10-15 14-23 2-3 5-8 6-12 1-6-1-12-2-17-2-10-1-19-1-29-1-11-5-18-11-27-8-13-10-34-24-43-15-9-36-10-52-13-10-2-20-4-26-12-5-8-4-20-4-29 0-25 0-49 2-74 1-19 32-19 31 1l0 0z" horiz-adv-x="995" />

<glyph glyph-name="messaging_comp" unicode="&#xe82b;" d="M1162 816h-1003c-72 0-130-58-130-130v-675c0-71 58-129 130-129h1003c72 0 130 58 130 129v675c0 72-58 130-130 130z m62-837l-341 429 349 276v-673c0-12-4-22-8-32z m-62 777c15 0 32-6 44-16l-545-433-546 433c12 10 28 16 44 16h1003z m-1065-777c-4 10-8 20-8 32v673l349-276-341-429z m62-37c-5 0-10 0-14 2l341 427 156-126c6-4 12-5 18-5s14 2 18 5l156 126 341-427c-4-2-10-2-14-2h-1002z m1003 894c-106 0-211 0-316 0-175 0-350 0-525 0-49 0-98 0-148 0-22 0-44-1-64-8-60-22-99-78-100-142-2-130 0-261 0-392 0-77 0-154 0-231 0-16-1-33 0-50 0-50 23-96 65-125 43-30 92-27 141-27 66 0 131 0 197 0 178 0 355 0 533 0 60 0 121 0 181 0 11 0 23 0 35 0 51 1 98 25 126 67 33 47 26 107 26 160 0 83 0 165 0 247 0 85 0 170 0 255 0 26 0 52 0 78 0 24-1 48-10 71-23 59-79 96-141 97-27 1-27-41 0-41 60-1 108-48 109-109 1-11 0-22 0-34 0-69 0-138 0-208 0-142 1-284 0-426 0-69-50-115-117-115-44 0-87 0-130 0-168 0-336 0-503 0-119 0-237-1-356 0-33 0-63 10-86 35-22 23-29 52-29 83 0 57 0 114 0 172 0 155 0 310 0 465 0 14-1 29 0 43 8 54 55 93 109 94 32 0 62 0 93 0 161 0 323 0 484 0 135 0 269 0 404 0 7 0 15 0 22 0 26 0 26 41 0 41z m76-842c-99 125-198 250-297 375-14 18-29 36-43 54 0-9 0-19 0-29 102 80 203 161 305 241 14 11 29 23 44 35-12 4-24 9-35 14 0-78 0-155 0-233 0-122 0-244 0-366 0-32 5-69-8-100-10-25 30-36 40-11 12 30 9 61 9 92 0 53 0 106 0 159 0 124 0 248 0 372 0 29 0 58 0 87 0 20-22 26-35 15-102-80-203-161-305-241-15-12-30-23-44-35-9-7-6-21 0-29 99-125 199-250 298-375 14-18 28-36 43-54 16-21 45 8 28 29z m-76 741c13-1 23-5 33-13-1 11-2 22-4 32-61-48-122-97-183-145-98-78-197-156-295-234-22-18-45-36-67-54 10 0 20 0 29 0-61 49-122 98-183 146-98 78-197 156-295 234-22 18-44 36-67 53-1-10-3-21-4-32 18 13 33 13 53 13 24 0 46 0 69 0 79 0 158 0 237 0 183 0 367 0 550 0 42 0 84 0 127 0 26 0 26 42 0 42-119 0-237 0-355 0-181 0-363 0-544 0-27 0-55 0-82 0-27 0-53-1-76-19-9-7-16-24-4-33 61-48 123-97 184-145 98-78 196-156 294-234 22-18 45-36 67-54 10-7 20-7 30 0 61 49 122 98 183 146 98 78 197 156 295 234 22 18 44 36 67 53 12 10 5 26-4 33-16 12-35 18-55 19-27 1-27-40 0-42z m-1045-750c-10 27-7 56-7 85 0 52 0 105 0 158 0 123 0 247 0 370 0 29 0 58 0 86-12-4-23-9-35-14 102-80 203-161 305-241 14-12 29-23 44-35 0 10 0 20 0 30-100-125-199-250-298-376-14-17-29-35-43-53-16-21 13-51 30-30 99 125 198 250 297 375 14 18 29 36 43 54 6 8 10 22 0 30-102 80-203 160-305 241-14 11-29 23-44 34-13 11-35 5-35-14 0-79 0-158 0-237 0-122 0-244 0-366 0-35-5-74 9-108 9-24 49-14 39 11z m42-23c-3 0-5 0-8 2 3-12 6-23 9-35 100 125 199 250 299 375 14 17 28 35 42 52-10 0-20 0-30 0 49-39 98-77 146-116 10-9 20-17 33-20 18-4 34 4 47 15 27 21 53 42 79 63 25 19 49 39 73 58-9 0-19 0-29 0 100-125 199-250 299-375 14-17 28-34 42-52 3 12 6 23 9 35-10-3-23-2-34-2-24 0-48 0-72 0-79 0-158 0-238 0-181 0-362 0-543 0-41 0-82 0-124 0-26 0-26-41 0-41 115 0 230 0 345 0 181 0 361 0 541 0 29 0 58 0 87 0 16 0 34-2 49 3 16 5 18 22 9 34-100 125-200 250-299 375-14 17-28 35-42 52-8 10-21 6-29 0-47-37-93-74-139-111-5-4-12-11-18-14-5-2-10 3-17 9-27 21-54 43-81 64-22 17-43 35-65 52-8 6-22 10-29 0-99-124-199-249-298-374-14-18-28-35-42-52-10-13-7-30 9-35 6-2 13-3 19-3 27 0 27 41 0 41z" horiz-adv-x="1322" />

<glyph glyph-name="orders_comp" unicode="&#xe82c;" d="M636 103c20-1 17-28-2-29-7 0-13 0-20 0-31 0-61 0-92 0-78 0-157 0-235 0-19 0-38-1-56 0-18 1-20 27-1 29 5 1 10 0 15 0 69 0 139 0 208 0 60 0 120-2 180 0 1 0 2 0 3 0 19 0 19 30 0 30-59 0-117 0-175 0-74 0-148 0-222 0-9 0-19 0-28-4-30-15-33-60-4-78 17-12 46-7 65-7 84 0 168 0 252 0 32 0 64 0 96 0 6 0 11 0 16 0 33 1 55 35 39 65-7 15-22 23-39 24-19 1-19-29 0-30z m0 178c20-2 17-28-2-29-7-1-13 0-20 0-31 0-61 0-92 0-78 0-157 0-235 0-19 0-38-2-56 0-18 1-20 27-1 29 5 0 10 0 15 0 69 0 139 0 208 0 60 0 120-2 180 0 1 0 2 0 3 0 19 0 19 30 0 30-59 0-117 0-175 0-74 0-148 0-222 0-9 0-19 0-28-5-30-15-33-59-4-78 17-11 46-7 65-7 84 0 168 0 252 0 32 0 64 0 96 0 6 0 11 0 16 0 33 2 55 36 39 66-7 15-22 23-39 24-19 1-19-29 0-30z m0 177c20-1 17-28-2-29-7 0-13 0-20 0-31 0-61 0-92 0-78 0-157 0-235 0-19 0-38-1-56 0-18 1-20 28-1 29 5 1 10 0 15 0 69 0 139 0 208 0 60 0 120-1 180 0 1 0 2 0 3 0 19 0 19 30 0 30-59 0-117 0-175 0-74 0-148 0-222 0-9 0-19 0-28-4-30-15-33-60-4-78 17-11 46-7 65-7 84 0 168 0 252 0 32 0 64 0 96 0 6 0 11 0 16 0 33 2 55 35 39 65-7 15-22 23-39 24-19 2-19-28 0-30z m-391 248c-2 8-1-3-1-6 0-6 0-13 0-20 0-10 0-19 0-28 0-7 5-13 11-15 11-4 26-1 38-1 28 0 56 0 83 0 62 0 125 0 187 0 15 0 29 0 44 0 8 0 15 7 15 15-1 20 0 40 0 59 0 9-7 15-15 15-24 1-42 21-43 45 0 7-7 16-15 15-7-1-15 0-23 0-18 0-37 0-55 0-41 0-83 0-124 0-10 0-20 0-30 0-8 0-15-7-15-15-1-24-19-44-43-44-19-1-19-31 0-30 41 1 72 33 73 74-5-5-10-10-15-15 68 0 135 0 203 0 9 0 19-1 29 0-5 5-10 10-15 15 1-41 32-73 73-75-5 5-10 10-15 15 0-19-1-39 0-59 5 5 10 10 15 15-101 0-202 0-303 0-10 0-21 0-32 0-3 0-6 0-9 0-3 0-6 2 0 0 4-5 7-10 11-15 0 21 3 43 0 63-4 19-33 11-29-8z m-44-40c-20 0-40 0-61 0-24 0-52 2-65-24-9-17-5-42-5-61 0-92 0-183 0-275 0-94 0-189 0-284 0-17-1-34 0-52 1-25 20-44 45-44 7-1 15 0 22 0 85 0 171 0 256 0 98 0 196 0 294 0 22 0 43-1 64 0 25 0 44 19 45 44 0 6 0 11 0 16 0 80 0 161 0 241 0 102 0 203 0 304 0 28 0 55 0 83 0 11-1 21-7 31-15 24-41 21-66 21-19 0-39 0-58 0-8 0-15-7-15-15-1-24-19-43-43-44-6 0-11 0-17 0-30 0-60 0-91 0-72 0-144 0-216 0-8 0-15 0-23 0-25 0-43 19-44 44 0 19-31 19-30 0 1-32 19-59 50-70 10-4 21-4 32-4 31 0 61 0 91 0 77 0 155 0 232 0 9 0 19-1 28 1 36 6 60 38 61 73-5-5-10-10-15-15 19 0 39 0 58 0 14 0 41 6 43-15 1-16 0-34 0-50 0-91 0-181 0-271 0-92 0-183 0-275 0-18 1-37 0-55-2-20-29-15-43-15-84 0-167 0-251 0-96 0-191 0-286 0-23 0-46 0-69 0-19 0-17 19-17 33 0 78 0 157 0 235 0 99 0 198 0 297 0 29 0 58 0 87 0 5 0 9 0 14 2 21 31 15 45 15 19 0 37 0 56 0 19 0 19 30 0 30z m464 29c21 0 43 0 64 0 27 0 52 0 73-20 24-23 22-53 22-83 0-92 0-185 0-277 0-99 0-198 0-296 0-20 2-42-1-62-7-34-36-60-71-60-6 0-12 0-18 0-87 0-174 0-261 0-101 0-202 0-303 0-19 0-38-1-56 0-37 0-69 29-72 66 0 7 0 14 0 20 0 84 0 167 0 251 0 104 0 208 0 312 0 25 0 49 0 73 0 24 8 45 27 60 20 18 45 17 70 17 21 0 41 0 62 0 8 0 15 7 15 15 1 23 18 43 43 44 8 0 15 7 15 15 1 29 23 44 49 44 21 0 41 0 61 0 51 0 103 0 154 0 5 0 11 0 16 0 22-3 37-22 38-44 0-8 7-15 15-15 25-1 42-20 43-44 1-20 31-20 30 0-1 41-31 73-73 74 5-5 10-10 15-15-1 41-33 73-74 74-20 0-40 0-61 0-55 0-110 0-165 0-43 0-77-31-78-75 5 5 10 10 15 15-41-1-72-33-73-74 5 5 10 10 15 15-22 0-44 0-66 0-29 0-56-1-81-19-27-20-41-51-42-85 0-7 0-14 0-20 0-93 0-186 0-279 0-101 0-203 0-305 0-23-2-49 3-71 10-41 44-72 85-78 9-1 17-1 26-1 88 0 176 0 263 0 104 0 208 0 312 0 22 0 45-2 67 1 41 6 74 38 83 78 3 11 3 23 3 34 0 85 0 170 0 255 0 107 0 214 0 320 0 22 1 44 0 66 0 34-16 66-44 86-25 18-52 18-81 18-21 0-43 0-64 0-19 0-19-30 0-30z m-631-259c19-62 15-130 6-193-1-8 2-16 11-19 7-2 17 3 18 11 10 69 14 141-6 209-5 18-35 11-29-8l0 0z m12 61c19 0 19 30 0 30-19 0-19-30 0-30l0 0z m16 24c19 0 19 30 0 30-19 0-19-30 0-30l0 0z m-14 28c38 0 39 61 0 61-39 0-39-61 0-61l0 0z m-3 37c39 0 39 61 0 61-38 0-39-61 0-61l0 0z m-32 21c0-210 0-420 0-631 0-38 61-39 61 0 0 211 0 421 0 631 0 39-61 39-61 0l0 0z m5-658c9-15 18-28 33-38 13-9 28-14 43-19 38-10 54 48 16 58-9 3-18 5-26 11-6 4-10 11-14 18-20 34-72 3-52-30l0 0z m83-55c178 0 355 0 532 0 50 0 101 0 151 0 38 0 39 61 0 61-178 0-355 0-532 0-50 0-101 0-151 0-38 0-38-61 0-61l0 0z m734 77c0 124 0 249 0 373 0 39-60 39-60 0 0-124 0-249 0-373 0-39 60-39 60 0l0 0z m-61-19c0 0 1-1 1-1-1 2-1 5-1 8 0-3 0-5 0-8 0 3 0 6 1 8-1-1-1-2-1-3-2-8-1-16 3-23 4-6 11-12 18-14 8-2 16-1 23 3 7 4 12 10 14 18 2 10 2 19 0 29-1 7-7 14-13 18-7 4-16 5-23 3-8-2-15-7-19-14-1-2-2-5-3-7-1-6-1-11 0-17l0 0z m66 391c0 106 0 211 0 316 0 39-60 39-60 0 0-105 0-210 0-316 0-38 60-38 60 0l0 0z m-49 355c-41 0-82 0-123 0-38 0-39-61 0-61 41 0 82 0 123 0 38 0 38 61 0 61l0 0z m-189-26c0-12 0-23 0-35 0-16 14-31 30-30 17 1 31 13 31 30 0 12 0 23 0 35 0 15-14 31-31 30-16-1-30-14-30-30l0 0z m6-16c-122 0-244 0-367 0-38 0-39-60 0-60 123 0 245 0 367 0 39 0 39 60 0 60l0 0z m-348-9c0 16 0 32 0 48 0 16-14 31-31 30-16-1-30-13-30-30 0-16 0-32 0-48 0-16 14-31 30-31 17 1 31 14 31 31l0 0z m-43 75c-42 0-84 0-126 0-38 0-39-60 0-60 42 0 84 0 126 0 39 0 39 60 0 60l0 0z m-156-23c-12-10-25-23-27-40-1-8-1-15 3-23 4-6 11-12 18-14 8-1 17-1 23 3 6 4 13 11 14 19 1 1 1 2 1 3 0 3-3-5-1-2 1 1 1 2 2 3 2 4-4-4-1-2 3 4 7 8 11 11 5 5 9 14 9 21 0 7-4 17-9 22-13 11-30 10-43-1l0 0z m200 20c0 4 0 9 0 14 0 8-4 16-9 21-5 6-14 9-22 9-7 0-15-3-21-9-5-5-9-13-9-21 0-5 0-10 0-14 0-8 4-16 9-22 5-5 14-9 21-9 8 1 16 4 22 9 5 6 9 13 9 22l0 0z m-2-10c13 3 25 8 35 17 5 4 9 9 12 15 2 4 4 8 5 12 1 8-2 1-2 0 0 0 4 1 7 2 7 2 13 3 20 4 14 2 29 3 43 4 29 3 58 3 88 3 14 0 29 0 44-1 5 0 11 1 16-1-3 1 2-4 1-1 6-15 20-26 37-21 15 4 28 22 21 37-6 17-16 31-32 39-16 8-33 8-50 8-35 0-70 1-105-1-34-2-70-3-102-12-16-5-31-14-39-29-1-3-5-9-5-13 1-2 0-2 1 0 1 2-3-2-5-3 4 2-6-1-5-1-38-11-22-69 15-58l0 0z m272 74c12-23 23-46 47-61 8-5 12-8 17-15 7-11 14-21 23-29 13-11 31-13 43 0 11 10 13 32 0 42-7 6-10 12-15 20-8 11-16 20-27 28-7 5-14 8-19 15-7 10-12 21-17 31-7 14-27 18-41 10-15-8-19-26-11-41l0 0z m-311-368c137 0 274 0 410 0 39 0 39 60 0 60-136 0-273 0-410 0-39 0-39-60 0-60l0 0z m410-121c-130 0-260 0-390 0-39 0-39-60 0-60 130 0 260 0 390 0 39 0 39 60 0 60l0 0z m-405-237c135 0 270 0 405 0 39 0 39 60 0 60-135 0-270 0-405 0-39 0-39-60 0-60l0 0z" horiz-adv-x="858" />

<glyph glyph-name="providers_compound" unicode="&#xe82d;" d="M1073 623c-29 40-58 79-88 119-16 22-33 45-49 67-11 15-22 28-42 29-30 1-60 0-90 0-60 0-121 0-182 0-122 0-244 0-367 0-14 0-28 0-42 0-17 0-30-5-41-18-33-42-63-85-94-127-15-21-31-42-46-63-5-6-10-13-11-21-2-8-1-17-1-24 0-32 0-64 0-96 0-23-6-58 18-72 13-8 31-6 45-6-5 5-11 11-16 16 0-54 0-108 0-162 0-92 0-183 0-275 0-26 0-51 0-77 0-27 15-46 43-46 46-1 93 0 140 0 88 0 176 0 264 0 93 0 186 0 279 0 60 0 120 0 181 0 18 0 39-2 51 16 12 15 8 42 8 61 0 83 0 167 0 251 0 73 0 147 0 220 0 4 0 9 0 12-6-5-11-11-17-16 11 0 22-1 32 1 20 4 31 19 32 39 0 14 0 29 0 43 0 26 0 51 0 77 0 16 3 39-7 52-5 7-14 11-22 6-7-4-12-15-6-22 6-8 2-27 2-37 0-22 0-44 0-66 0-16 0-33 0-50 0-6 0-9-7-11-7-1-16 0-24 0-8 0-16-7-16-16 0-52 0-105 0-158 0-89 0-179 0-268 0-28 0-56 0-83 0-4 1-11 0-14-2-5-8-4-12-4-48-1-96 0-143 0-87 0-174 0-261 0-91 0-181 0-272 0-61 0-121 0-182 0-7 0-28-4-30 5-1 4-1 10-1 14 0 11 0 22 0 33 0 84 0 167 0 251 0 71 0 142 0 213 0 4 0 8 0 12 0 8-7 16-16 16-9 0-29-4-30 7-2 6 0 14 0 20 0 31 0 62 0 93 0 13-5 34 3 45 13 16 24 33 37 49 34 45 68 91 102 137 5 8 6 9 15 10 11 0 23 0 34 0 114 0 229 0 343 0 98 0 197 0 296 0 4 0 7 0 10 0 3-1 5-1 7-3 5-4 8-11 12-16 7-10 15-20 22-30 35-47 69-93 104-140 2-3 4-6 7-9 12-17 41-1 28 16z m-206 138c37-50 75-100 112-150 5 8 10 16 14 25-44 0-87 0-131 0 5-3 9-6 14-9-25 51-50 101-75 151-5-8-9-17-14-25 31 0 63 0 94 0 21 0 21 33 0 33-31 0-63 0-94 0-13 0-20-14-14-25 25-50 50-100 75-150 2-5 8-8 14-8 44 0 87 0 131 0 12 0 22 14 14 25-37 50-75 100-112 150-13 17-41 0-28-17z m-151 0c25-50 50-100 75-150 5 8 10 16 15 25-46 0-91 0-136 0 5-5 10-8 15-12-12 50-24 100-37 150-5-7-11-14-16-21 33 0 66 0 99 0 21 0 21 33 0 33-33 0-66 0-99 0-11 0-18-11-16-21 13-50 25-100 38-150 1-7 8-12 16-12 45 0 90 0 136 0 13 0 19 13 14 24-25 50-50 100-75 151-10 19-38 2-29-17z m87-188c0-33 0-66 0-99 6 6 11 11 17 17-49 0-97 0-146 0 6-6 11-11 17-17 0 33 0 66 0 99-6-6-11-11-17-17 49 0 97 0 146 0 21 0 21 33 0 33-49 0-97 0-146 0-8 0-16-7-16-16 0-33 0-66 0-99 0-9 7-16 16-16 49 0 97 0 146 0 9 0 16 7 16 16 0 33 0 66 0 99 0 21-33 21-33 0z m-283 180c20 0 40 0 61 0-6 4-11 8-16 12 12-50 25-100 37-150 5 7 11 14 16 21-44 0-87 0-131 0 5-7 10-14 16-21 11 50 22 100 32 150 5 21-27 30-31 9-11-50-22-100-33-150-2-11 5-21 16-21 44 0 87 0 131 0 11 0 18 10 16 21-13 50-25 100-38 150-1 7-8 12-15 12-21 0-41 0-61 0-22 0-22-33 0-33z m-47-197c48 0 96 0 145 0-6 6-11 11-17 17 0-33 0-66 0-99 6 6 11 11 17 17-49 0-97 0-145 0 5-6 10-11 16-17 0 33 0 66 0 99 0 21-33 21-33 0 0-33 0-66 0-99 0-9 8-16 17-16 48 0 96 0 145 0 9 0 16 7 16 16 0 33 0 66 0 99 0 8-7 16-16 16-49 0-97 0-145 0-22 0-22-33 0-33z m-21 218c-13-50-25-100-37-150 5 4 10 8 15 12-45 0-90 0-136 0 5-8 10-17 15-25 25 50 50 100 75 150-5-2-10-5-15-8 33 0 66 0 99 0 21 0 21 33 0 33-33 0-66 0-99 0-5 0-11-3-14-8-25-50-50-100-75-150-5-11 1-25 14-25 46 0 91 0 136 0 8 0 14 5 16 12 13 50 25 100 38 150 5 21-27 30-32 9z m-43-201c0-33 0-66 0-99 6 6 11 11 17 17-49 0-97 0-146 0 6-6 11-11 17-17 0 33 0 66 0 99-6-6-11-11-17-17 49 0 97 0 146 0 21 0 21 33 0 33-49 0-97 0-146 0-8 0-16-7-16-16 0-33 0-66 0-99 0-9 7-16 16-16 49 0 97 0 146 0 9 0 16 7 16 16 0 33 0 66 0 99 0 21-33 21-33 0z m-194 180c31 0 62 0 93 0-4 8-9 17-14 25-25-50-50-100-75-150 5 2 10 5 14 8-43 0-87 0-131 0 5-8 10-17 14-25 38 50 75 100 113 150 12 17-16 34-29 17-37-50-75-100-112-150-8-11 3-25 14-25 44 0 88 0 131 0 6 0 12 3 15 8 25 50 50 100 75 150 5 11-1 25-15 25-31 0-62 0-93 0-22 0-22-33 0-33z m-120-279c0 33 0 66 0 99-5-6-11-11-16-17 48 0 96 0 145 0-6 6-11 11-17 17 0-33 0-66 0-99 6 6 11 11 17 17-49 0-97 0-145 0-21 0-21-33 0-33 48 0 96 0 145 0 9 0 16 7 16 16 0 33 0 66 0 99 0 8-7 16-16 16-49 0-97 0-145 0-9 0-17-7-17-16 0-33 0-66 0-99 0-21 33-21 33 0z m575-523c-72 0-143 0-214 0-10 0-20 0-31 0 6-6 11-11 17-17 0 73 0 145 0 218 0 10 0 21 0 31-6-5-11-11-17-16 72 0 143 0 214 0 10 0 20 0 31 0-6 5-11 11-17 16 0-72 0-144 0-217 0-10 0-21 0-32 0-21 33-21 33 0 0 73 0 145 0 218 0 10 0 21 0 31 0 9-7 17-16 17-72 0-143 0-214 0-10 0-20 0-31 0-8 0-16-8-16-17 0-72 0-144 0-217 0-10 0-21 0-32 0-8 7-16 16-16 72 0 143 0 214 0 10 0 20 0 31 0 21 0 21 33 0 33z m295 0c-71 0-143 0-214 0-10 0-20 0-30 0 5-6 11-11 16-17 0 65 0 130 0 195 0 26 1 52 0 77 0 24-16 40-40 41-7 0-14 0-21 0-77 0-154 0-231 0-24 0-59 6-75-16-13-18-8-53-8-74 0-74 0-148 0-222 5 5 11 11 16 16-71 0-142 0-213 0-10 0-20 0-31 0 6-5 11-11 17-16 0 55 0 110 0 166 0 88 0 177 0 266 0 20 0 40 0 60-6-5-11-11-17-16 95 0 189 0 283 0 150 0 300 0 449 0 34 0 69 0 103 0-5 5-11 11-16 16 0-55 0-110 0-165 0-89 0-178 0-266 0-21 0-41 0-61 5 5 11 11 16 16-1 0-2 0-4 0-21 0-21-33 0-33 2 0 3 0 5 0 8 0 16 7 16 16 0 56 0 111 0 166 0 89 0 178 0 266 0 21 0 41 0 61 0 9-7 16-16 16-95 0-189 0-283 0-150 0-300 0-449 0-34 0-69 0-103 0-9 0-16-7-16-16 0-55 0-110 0-166 0-88 0-177 0-266 0-20 0-40 0-61 0-8 7-16 16-16 71 0 142 0 214 0 10 0 20 0 30 0 9 0 16 7 16 16 0 62 0 123 0 185 0 28 0 56 0 83 0 7 1 11 9 12 8 0 17 0 25 0 74 0 148 0 222 0 13 0 25 0 37 0 7 0 15 2 17-7 1-6 0-12 0-18 0-14 0-29 0-43 0-71 0-141 0-212 0-8 7-16 16-16 71 0 143 0 214 0 10 0 20 0 30 0 21 0 21 33 0 33z m52 540c-49 0-97 0-146 0 6-6 11-11 17-17 0 33 0 66 0 99-6-6-11-11-17-17 49 0 97 0 146 0-6 6-11 11-17 17 0-33 0-66 0-99 0-21 33-21 33 0 0 33 0 66 0 99 0 8-7 16-16 16-49 0-97 0-146 0-8 0-16-7-16-16 0-33 0-66 0-99 0-9 7-16 16-16 49 0 97 0 146 0 21 0 21 33 0 33z m-900-601c227 0 454 0 681 0 65 0 130 0 194 0 21 0 21 33 0 33-227 0-454 0-681 0-64 0-129 0-194 0-21 0-21-33 0-33l0 0z m893 28c0 174 0 348 0 522 0 22-32 22-32 0 0-174 0-348 0-522 0-22 32-22 32 0l0 0z m-7 517c13 0 26 0 39 0 0 11 0 22 0 33-3 0-5 0-8 0-21 0-21-33 0-33 3 0 5 0 8 0 21 0 21 33 0 33-13 0-26 0-39 0-21 0-21-33 0-33l0 0z m12 147c0-37 0-75 0-112 0-21 32-21 32 0 0 37 0 75 0 112 0 22-32 22-32 0l0 0z m39 16c-32 82-79 157-138 222-14 16-37-7-23-23 55-61 99-131 129-208 8-19 40-11 32 9l0 0z m-168 220c-228 0-455 0-682 0-21 0-21-33 0-33 227 0 454 0 682 0 21 0 21 33 0 33l0 0z m-706-8c-5-22-21-37-35-52-14-15-28-30-41-46-26-32-48-66-59-106-6-20 26-29 32-8 11 40 35 74 62 105 26 29 64 58 73 98 4 20-28 29-32 9l0 0z m-39-70c-9-21-19-43-36-60-8-8-18-13-26-22-7-9-11-21-14-33-5-20 27-29 32-8 3 13 6 20 17 28 8 7 16 13 23 21 14 17 24 37 33 57 8 19-20 36-29 17l0 0z m63 67c-3-2-4-3-7-5-2-1-3-2-4-4-2-2-3-3-3-5-1-4-1-9 1-13 2-4 6-7 10-8 4 0 9 0 13 2 2 2 4 3 6 5 2 1 4 2 5 4 1 1 2 3 3 5 1 4 0 9-2 13-2 3-6 6-10 7-4 2-9 2-12-1l0 0z m-82-899c-9 43-13 84-10 127 2 43 6 85 7 128 1 43 0 86-2 128-1 21-2 41-3 62-2 21-3 42 1 63 5 20-27 29-32 9-9-42-1-86 1-128 2-45 3-90 2-134-1-45-5-89-7-133-3-45 2-87 12-131 4-20 36-11 31 9l0 0z m-24 511c0-166 0-331 0-497 0-21 33-21 33 0 0 166 0 331 0 497 0 21-33 21-33 0l0 0z m326-491c0 94 0 188 0 282 0 21-32 21-32 0 0-94 0-188 0-282 0-21 32-21 32 0l0 0z m-3 262c92 0 184 0 276 0 21 0 21 33 0 33-92 0-184 0-276 0-22 0-22-33 0-33l0 0z m257 17c0-95 0-191 0-286 0-21 33-21 33 0 0 95 0 191 0 286 0 21-33 21-33 0l0 0z m-619 225c242 0 484 0 726 0 69 0 138 0 207 0 21 0 21 33 0 33-242 0-484 0-726 0-69 0-138 0-207 0-21 0-21-33 0-33l0 0z m-14 160c0-44 0-88 0-132 0-21 33-21 33 0 0 44 0 88 0 132 0 21-33 21-33 0l0 0z m963 27c-242-12-484-18-726-19-69 0-139 0-208 1-21 0-21-32 0-33 242-2 484 1 726 9 70 2 138 5 208 8 21 2 21 34 0 34l0 0z m-772-50c0-38 0-76 0-113 0-21 32-21 32 0 0 37 0 75 0 113 0 21-32 21-32 0l0 0z m196 9c0-36 0-71 0-107 0-21 33-21 33 0 0 36 0 71 0 107 0 21-33 21-33 0l0 0z m190-5c0-31 0-62 0-93 0-21 33-21 33 0 0 31 0 62 0 93 0 21-33 22-33 0l0 0z m16 8c1-37 3-74 5-111 1-21 34-21 33 0-2 37-4 74-5 111 0 21-33 21-33 0l0 0z m185 0c0-37 0-74 0-112 0-21 33-21 33 0 0 38 0 75 0 112 0 21-33 21-33 0l0 0z m34-98c-2-1-3-1-5-2-4-1-8-4-10-8-2-3-3-8-1-12 1-4 3-8 7-10 4-2 9-3 13-2 1 1 3 1 4 2 5 1 8 4 10 8 2 3 3 8 2 12-1 4-4 8-8 10-4 2-8 3-12 2l0 0z m-780 100c242 0 483 0 724 0 69 0 137 0 205 0 21 0 21 33 0 33-241 0-483 0-724 0-68 0-136 0-205 0-21 0-21-33 0-33l0 0z m805 189c24-17 37-48 52-73 18-28 37-55 57-81 13-17 41-1 28 16-22 29-42 60-62 90-17 28-32 57-58 77-17 12-34-16-17-29l0 0z m-155 22c3-33 22-65 36-95 16-33 32-66 50-98 9-19 38-3 28 16-16 29-31 59-45 89-7 15-13 29-20 43-6 15-15 30-17 46-2 20-35 20-32-1l0 0z m21-11c-4-38 10-69 31-100 20-30 19-68 50-90 17-12 33 16 16 28-12 9-15 26-19 39-5 14-11 27-19 40-18 26-30 50-27 84 2 20-31 20-32-1l0 0z m7 18c6-31 20-59 32-88 13-31 25-62 35-94 7-20 39-11 32 9-11 31-22 62-35 93-13 29-27 57-33 89-3 20-35 12-31-9l0 0z m-181-17c14-65 32-128 55-190 7-20 38-11 31 9-22 62-41 125-54 189-5 21-36 12-32-8l0 0z m29 17c-14-6-13-26-12-38 2-17 7-34 12-51 11-35 23-71 36-106 7-19 38-11 31 9-10 28-19 55-28 83-4 14-8 27-12 41-2 6-4 13-5 19-1 3-1 6-1 10-1 5 2 8-5 5 19 8 3 37-16 28l0 0z m-117-7c-9-61-16-122-22-184-2-21 31-20 33 0 5 59 12 117 20 175 2 9-2 18-11 21-8 2-19-3-20-12l0 0z m-23-9c4-28 14-53 13-82-1-27-8-54-21-78 10-1 20-3 30-4 0 2-1 3-1 4-4 21-36 12-32-8 1-2 1-3 1-4 3-14 24-16 30-4 15 28 24 58 26 89 1 16 0 31-3 46-3 17-9 33-11 50-4 21-35 12-32-9l0 0z m-5-47c-5-21-8-43-11-65-2-20 0-43-6-62-7-20 24-28 32-9 6 19 4 41 6 61 3 22 6 44 11 66 4 21-28 30-32 9l0 0z m-128 52c-7-32-13-65-22-97-10-31-28-57-47-84-12-17 16-34 29-17 19 28 37 55 48 88 11 32 16 67 23 101 5 21-27 29-31 9l0 0z m-19-21c4-28-10-57-20-82-10-27-20-54-30-81 10 1 20 2 30 4 0 1 0 2-1 3-2 21-35 21-33 0 1-7 3-13 6-20 7-14 26-8 30 4 11 30 23 60 34 91 11 29 20 57 16 89-1 9-12 13-20 11-10-2-13-11-12-19l0 0z m-23-45c-14-15-22-34-28-54-6-19-9-41-22-57-13-16 10-40 24-23 13 17 20 36 26 56 5 20 9 40 24 55 14 15-9 38-24 23l0 0z m26 51c60 2 119 4 179 7 21 0 21 33 0 32-60-2-119-4-179-7-21 0-21-33 0-32l0 0z m333-301c-3 1-5 3-8 5-1-11-3-20-4-31 2 1 3 1 5 1-1 0-3 0-4 0 2 0 5 0 7 0 9 1 17 8 17 17-1 8-7 16-17 16-5 0-11-1-16-2-7-1-11-8-12-14-1-6 2-12 8-16 2-2 5-3 7-5 8-5 19-2 23 6 4 8 1 18-6 23l0 0z" horiz-adv-x="1092" />

<glyph glyph-name="calendar-1" unicode="&#xe82e;" d="M800 700q42 0 71-29t29-71l0-600q0-40-29-70t-71-30l-700 0q-40 0-70 30t-30 70l0 600q0 42 30 71t70 29l46 0 0-100 160 0 0 100 290 0 0-100 160 0 0 100 44 0z m0-700l0 400-700 0 0-400 700 0z m-540 800l0-170-70 0 0 170 70 0z m450 0l0-170-70 0 0 170 70 0z" horiz-adv-x="900" />

<glyph glyph-name="services-comp" unicode="&#xe82f;" d="M957 820c-126 0-228-103-228-228 0-125 103-227 228-227s229 102 229 227c0 125-103 228-229 228z m0-70c88 0 159-70 159-158 0-87-71-157-159-157s-158 70-158 157c0 88 70 158 158 158z m-497-298c-3 0-6-1-10-2l-109-49c0 19-16 34-35 34h-246c-21-2-35-17-35-35v-421c0-12 6-24 17-30 11-7 25-7 36 0 11 6 17 18 17 30v386h176v-351h-193c-13 1-29-6-36-17-6-11 29-24 36-35 6-11-31-18-18-17h246c19 0 35 15 35 34v35h29l381-137c10-4 21-3 30 2l468 271c25 16 42 44 42 74 0 48-40 88-88 88-7 0-14-1-20-2-5-1-4-1-5-1-4-2-7-3-10-4-7-3-16-6-27-10-22-8-51-19-79-29-42-15-65-24-84-31-4 6-8 12-13 17-15 13-32 21-49 25l-3 2-436 171c-5 2-11 3-17 2z m6-73l425-166c1-1 2-1 4-1 10-3 19-8 23-11 3-3 4-5 4-11 0-11-7-18-17-18h-168l-171 68c-18 7-38-2-46-20-7-17 1-38 20-45l175-70c5-2 9-3 14-3h176c39 0 72 27 83 62 12 5 50 18 99 36 29 11 57 21 79 29 11 4 20 7 26 10 3 1 5 2 7 2h1c1 1 3 1 4 1 10 0 17-7 17-18 0-6-3-11-8-14l-452-262-372 135c-4 1-8 2-12 2h-35v240l124 54z m491 457c-102-1-194-65-230-161-35-96-3-208 76-272 79-63 192-73 280-20 88 52 134 157 114 257-22 113-126 195-240 196-20 0-20-32 0-32 88-1 170-56 200-139 31-85 4-179-65-236-68-57-168-64-244-18-75 45-117 136-99 223 20 98 109 169 209 170 20 0 20 32-1 32z m0-102c59-1 114-37 134-93 20-56 3-120-43-158-46-38-114-42-165-12-50 31-77 92-65 150 14 66 72 112 139 113 21 0 21 32 0 32-73-1-138-46-163-115-25-67-4-147 52-192 57-46 139-54 202-16 62 38 94 111 81 183-15 81-90 139-171 140-21 0-21-32-1-32z m-501-267c-22-3-44-17-63-26-20-9-40-18-60-26 8-5 16-9 24-14-3 31-26 49-56 49-19 0-37 0-56 0-53 0-106 0-159 0-15 0-31 2-45-4-22-9-32-29-32-52 0-37 0-75 0-112 0-98 0-195 0-292 0-18 1-34 14-47 33-33 87-8 88 36 1 30 0 61 0 91 0 96 0 192 0 288 0 2 0 4 0 6-5-5-10-10-16-16 59 0 117 0 176 0-5 6-11 11-16 16 0-102 0-204 0-306 0-14 0-29 0-44 5 6 11 11 16 16-41 0-83 0-124 0-21 0-42 0-63 0-22 0-64-11-58-40 3-15 23-28 36-35 0 0 1-2 2-2-3 7-3 12 1 13 1 1 1 0-1-1-2 0-5-2-6-3-8-3-13-5-16-13-3-6 1-15 7-18 12-6 31-3 43-3 29 0 57 0 86 0 30 0 59 0 89 0 14 0 29-1 43 1 25 2 45 21 47 47 1 13 1 26 1 38-6-5-11-10-16-16 4 0 8 0 13 0 3 0 7 0 11 0 5 0 4-1 0 1 3-1 5-2 7-3 14-5 29-10 44-15 51-19 102-38 154-56 48-17 96-35 144-52 11-4 21-8 31-11 17-6 33-2 48 6 77 44 153 89 229 133 77 44 154 88 230 133 21 13 38 31 47 54 16 39 4 86-27 113-31 27-71 33-109 20-48-18-96-35-143-53-16-5-31-11-47-17 6-2 12-5 18-7-22 33-57 44-93 58-33 13-67 26-100 39-87 34-174 68-261 102-15 6-29 11-44 17-11 5-21 9-34 8-21-1-21-33 0-32 8 1 15-2 23-6 12-4 23-8 34-13 38-15 76-30 115-45 81-31 163-63 244-95 10-4 20-8 30-12 1 0 2-1 2-1 3-1-5 2 1 0 22-10 41-15 56-37 3-5 11-10 18-7 39 14 78 28 116 43 23 8 45 16 67 24 4 2 9 3 13 5 1 0 12 3 5 1 11 3 21 4 31 2 38-7 66-44 59-82-3-23-18-41-37-52-73-42-146-84-219-126-78-45-157-91-235-136-9-6-16-10-28-7-8 2-16 6-24 8-43 16-87 32-130 47-52 19-103 38-155 57-17 6-35 12-52 18-8 3-16 7-24 8-10 1-20 0-29 0-8 0-16-7-16-16 0-19 7-52-20-54-14-1-28 0-42 0-54 0-108 0-162 0-11 0-21 0-31 0-3 0-6 0-8 0-4-1-6 2 3-2 2-6 5-12 7-18 0 0 0 0 0 0-2-3-5-6-7-10 2 2-2 0 1 1 3 1 6 2 9 4 5 2 11 6 14 11 11 14 0 28-12 36-6 5-12 8-17 12-1 1-4 4-4 4 0-3 1-5 1-8 1 1 1 1 2 2 3 1 5 3 8 4 6 2 11 2 17 2 47 0 93 0 140 0 16 0 31 0 47 0 8 0 16 7 16 16 0 102 0 204 0 306 0 14 0 29 0 44 0 9-7 16-16 16-59 0-117 0-176 0-9 0-16-7-16-16 0-77 0-154 0-231 0-43 0-87 0-130 0-8 0-16 0-24-1-17-22-28-34-13-4 5-4 10-4 15-1 84 0 167 0 250 0 44 0 89 0 134 0 20-7 52 22 53 42 1 84 0 125 0 39 0 78 2 117 0 10-1 19-6 20-17 2-13 13-19 24-14 19 8 38 16 57 25 18 8 41 21 58 24 21 4 12 35-8 31z m6-103c86-34 172-68 259-101 48-19 96-38 144-57 8-3 17-7 26-10 4-1 10-2 14-6 2-1 2 2 1 0 0 0 1-2 0-2-1 0-3 0-5 0-9-1-20 0-29 0-31 0-62 0-92 0-12 0-23 0-35 0-2 0-5 0-8 0-1 0 5-2 2 0-7 4-16 7-23 9-14 6-27 11-40 16-28 11-55 22-83 33-22 9-45 19-68 4-20-13-28-39-20-61 6-15 17-25 32-30 49-20 97-39 146-59 15-6 31-14 47-14 23-1 46 0 68 0 29 0 59 0 88 0 28 0 55 2 79 20 18 13 31 32 38 54-3-4-7-8-11-11 41 15 82 30 123 45 24 9 48 18 73 26 3 1 21 9 16 3-5-6-18-11-25-14-17-10-35-20-52-30-98-57-197-114-296-171-26-15-52-31-79-46 4 1 9 1 13 2-118 42-236 85-354 128-6 2-12 5-18 6-16 5-35 3-52 3 6-6 11-11 16-16 0 70 0 140 0 210 0 10 0 20 0 30-2-5-5-9-8-14 42 18 83 37 125 55 18 8 2 35-17 27-41-18-83-36-124-54-5-2-8-9-8-14 0-70 0-140 0-210 0-10 0-20 0-30 0-9 7-16 16-16 15 0 32 2 46-2 12-5 24-9 36-13 50-18 100-36 149-55 49-17 98-35 147-53 11-4 23-9 35-12 8-3 14 0 21 4 79 46 158 92 237 137 46 27 92 54 139 81 23 14 47 26 69 40 34 22 9 72-29 60-48-15-96-35-144-52-18-7-36-14-55-20-6-2-13-4-17-9-6-8-8-20-15-28-17-23-41-29-68-29-50 0-100 0-150 0-12 0-21 2-32 6-21 9-43 17-65 26-25 10-51 20-76 30-14 6-39 11-36 31 5 26 33 12 48 6 25-10 50-20 74-30 23-8 45-17 67-26 11-4 18-5 29-5 49 0 99 0 148 0 9 0 19 1 27 8 14 11 17 35 3 49-12 11-29 14-44 20-37 14-74 29-111 43-95 37-190 75-285 112-6 2-13 5-19 7-19 7-27-24-8-31z" horiz-adv-x="1311" />

<glyph glyph-name="double-arrow" unicode="&#xe830;" d="M310 37l-222 224c-17 17-44 17-60 0-17-17-17-44 0-60l250-252c9-9 21-13 32-13 12 0 23 4 32 13l250 252c17 16 17 43 0 60s-43 17-60 0l-222-224z m0 779l223-224c16-16 43-16 60 0 16 17 16 44 0 61l-251 252c-8 9-20 13-32 12-11 1-23-3-32-12l-250-252c-17-17-17-44 0-61s43-16 60 0l222 224z" horiz-adv-x="620" />

<glyph glyph-name="calendar-2" unicode="&#xe831;" d="M71-79h161v161h-161v-161z m197 0h178v161h-178v-161z m-197 197h161v178h-161v-178z m197 0h178v178h-178v-178z m-197 214h161v161h-161v-161z m411-411h179v161h-179v-161z m-214 411h178v161h-178v-161z m428-411h161v161h-161v-161z m-214 197h179v178h-179v-178z m-196 482v161q0 7-6 12t-12 6h-36q-7 0-12-6t-6-12v-161q0-7 6-13t12-5h36q7 0 12 5t6 13z m410-482h161v178h-161v-178z m-214 214h179v161h-179v-161z m214 0h161v161h-161v-161z m18 268v161q0 7-5 12t-13 6h-35q-7 0-13-6t-5-12v-161q0-7 5-13t13-5h35q8 0 13 5t5 13z m215 36v-715q0-29-22-50t-50-21h-786q-29 0-50 21t-21 50v715q0 29 21 50t50 21h72v54q0 37 26 63t63 26h36q37 0 63-26t26-63v-54h214v54q0 37 27 63t63 26h35q37 0 64-26t26-63v-54h71q29 0 50-21t22-50z" horiz-adv-x="928.6" />

<glyph glyph-name="calendar-empty-1" unicode="&#xe832;" d="M71-79h786v572h-786v-572z m215 679v161q0 8-5 13t-13 5h-36q-8 0-13-5t-5-13v-161q0-8 5-13t13-5h36q8 0 13 5t5 13z m428 0v161q0 8-5 13t-13 5h-35q-8 0-13-5t-5-13v-161q0-8 5-13t13-5h35q8 0 13 5t5 13z m215 36v-715q0-29-22-50t-50-21h-786q-29 0-50 21t-21 50v715q0 29 21 50t50 21h72v54q0 37 26 63t63 26h36q37 0 63-26t26-63v-54h214v54q0 37 27 63t63 26h35q37 0 64-26t26-63v-54h71q29 0 50-21t22-50z" horiz-adv-x="928.6" />

<glyph glyph-name="cart" unicode="&#xe833;" d="M322 148c-34 114-68 227-101 339-19 65-39 129-57 194-3 10-8 13-18 13-27-1-54-1-82-1-18 0-31 11-31 28 0 16 12 28 32 28 42 0 84-1 127 0 7 0 10-3 12-10 7-23 14-47 21-71 2-7 5-10 13-10 136 1 272 1 408 1 103 0 206 0 310 0 3 0 6 0 11 0-1-6-2-11-3-16-29-128-59-257-88-385-2-9-5-12-14-13-54-4-108-9-163-13-81-7-163-14-244-21-30-2-59-5-90-8 5-17 9-34 15-50 0-3 7-5 10-5 74-1 148-1 222-1 57 0 114 0 171 0 50 0 92-40 96-90 4-49-32-95-81-103-75-13-133 58-108 129 1 3 2 5 3 8-92 0-183 0-275 0 15-36 12-70-11-101-17-22-40-34-67-38-48-7-97 29-107 80-8 45 17 104 89 116z m25 110c4 0 6 0 9 0 55 5 111 10 166 14 98 9 197 17 295 25 9 0 12 4 14 12 17 77 35 153 52 229 5 21 10 42 14 64-218 0-434 0-652 0 34-115 68-229 102-344z m25-208c0 23-20 42-42 42-23 0-42-20-43-42 0-24 20-43 43-43 24 1 42 20 42 43z m452-1c0 23-19 42-42 43-23 0-43-19-43-43 0-22 19-41 41-41 25-1 43 17 44 41z" horiz-adv-x="1000" />

<glyph glyph-name="bell-1" unicode="&#xe834;" d="M376-24c-78 0-155 0-232 0-47 1-78 35-72 79 4 32 31 56 68 61 55 6 72 26 72 81 0 71 3 142-1 213-8 146 77 269 214 306-9 37-3 71 34 91 25 13 51 10 74-6 25-17 32-43 24-86 5-3 11-5 17-7 116-39 196-149 197-272 0-82 0-164 0-246 0-45 23-70 68-74 43-4 73-35 72-73-2-39-34-66-77-67-69 0-137 0-205 0-7 0-15 0-22 0-18-58-55-93-116-93-60 0-98 35-115 93z m113 47c0 0 0 0 0 0 114 0 227 0 341 0 16 0 31 4 32 22 1 20-14 24-31 25-40 3-74 21-92 57-10 20-16 44-16 66-2 88 1 175-3 262-5 126-120 228-242 220-123-7-219-106-221-230-1-85 0-170 0-255 0-70-41-114-110-120-4-1-10 0-12-2-6-7-16-15-15-21 2-9 11-17 19-23 3-3 11-1 17-1 111 0 222 0 333 0z m-63-48c13-31 37-46 67-45 28 2 50 18 58 45-41 0-82 0-125 0z m88 767c0 10-5 20-13 24-5 3-11 2-13 2-15-1-22-10-21-25 0-2 1-12 10-18 11-7 22-3 23-2 12 5 14 18 14 19z" horiz-adv-x="1000" />

<glyph glyph-name="phone" unicode="&#xe835;" d="M786 158q0-15-6-39t-12-38q-11-28-68-60-52-28-103-28-15 0-30 2t-32 7-26 8-31 11-28 10q-54 20-97 47-71 44-148 120t-120 148q-27 43-46 97-2 5-10 28t-12 31-8 26-7 32-2 29q0 52 29 104 31 57 59 68 14 6 38 12t39 6q8 0 12-2 10-3 30-42 6-11 16-31t20-35 17-30q2-2 10-14t12-20 4-16q0-11-16-27t-35-31-34-30-16-25q0-5 3-13t4-11 8-14 7-10q42-77 97-132t131-97q1 0 10-6t14-8 11-5 13-2q10 0 25 16t30 34 31 35 28 16q7 0 15-4t20-12 14-10q14-8 30-17t36-20 30-17q39-19 42-29 2-4 2-12z" horiz-adv-x="785.7" />

<glyph glyph-name="star" unicode="&#xe836;" d="M929 489q0-12-15-27l-202-197 48-279q0-4 0-12 0-11-6-19t-17-9q-10 0-22 7l-251 132-250-132q-12-7-23-7-11 0-17 9t-6 19q0 4 1 12l48 279-203 197q-14 15-14 27 0 21 31 26l280 40 126 254q11 23 27 23t28-23l125-254 280-40q32-5 32-26z" horiz-adv-x="928.6" />

<glyph glyph-name="star-empty" unicode="&#xe837;" d="M635 290l170 166-235 34-106 213-105-213-236-34 171-166-41-235 211 111 211-111z m294 199q0-12-15-27l-202-197 48-279q0-4 0-12 0-28-23-28-10 0-22 7l-251 132-250-132q-12-7-23-7-11 0-17 9t-6 19q0 4 1 12l48 279-203 197q-14 15-14 27 0 21 31 26l280 40 126 254q11 23 27 23t28-23l125-254 280-40q32-5 32-26z" horiz-adv-x="928.6" />

<glyph glyph-name="star-half" unicode="&#xe838;" d="M464 832v-747l-250-132q-12-7-23-7-11 0-17 9t-6 19q0 4 1 12l48 279-203 197q-14 15-14 27 0 21 31 26l280 40 126 254q11 23 27 23z" horiz-adv-x="500" />

<glyph glyph-name="trash-empty" unicode="&#xe839;" d="M286 439v-321q0-8-5-13t-13-5h-36q-8 0-13 5t-5 13v321q0 8 5 13t13 5h36q8 0 13-5t5-13z m143 0v-321q0-8-5-13t-13-5h-36q-8 0-13 5t-5 13v321q0 8 5 13t13 5h36q8 0 13-5t5-13z m142 0v-321q0-8-5-13t-12-5h-36q-8 0-13 5t-5 13v321q0 8 5 13t13 5h36q7 0 12-5t5-13z m72-404v529h-500v-529q0-12 4-22t8-15 6-5h464q2 0 6 5t8 15 4 22z m-375 601h250l-27 65q-4 5-9 6h-177q-6-1-10-6z m518-18v-36q0-8-5-13t-13-5h-54v-529q0-46-26-80t-63-34h-464q-37 0-63 33t-27 79v531h-53q-8 0-13 5t-5 13v36q0 8 5 13t13 5h172l39 93q9 21 31 35t44 15h178q23 0 44-15t30-35l39-93h173q8 0 13-5t5-13z" horiz-adv-x="785.7" />

<glyph glyph-name="trash" unicode="&#xe83a;" d="M729 636q21 0 37-15t15-36-15-37-37-15l0-417q0-86-61-147t-147-62l-261 0q-86 0-147 62t-60 147l0 417q-22 0-37 15t-16 37 16 36 37 15l51 0 0 53q0 42 30 73t75 31l364 0q43 0 74-31t31-73l0-53 51 0z m-520 53l0-53 364 0 0 53-364 0z m416-573l0 417-469 0 0-417q0-43 31-74t73-31l261 0q43 0 73 31t31 74z m-390 338q10 0 18-8t7-17l0-313q0-10-7-18t-18-8-18 8-8 18l0 313q0 10 8 17t18 8z m104 0q10 0 18-8t8-17l0-313q0-10-8-18t-18-8-18 8-8 18l0 313q0 10 8 17t18 8z m104 0q10 0 18-8t8-17l0-313q0-10-8-18t-18-8-19 8-8 18l0 313q0 10 8 17t19 8z m105 0q10 0 17-8t8-17l0-313q0-10-8-18t-17-8-19 8-8 18l0 313q0 10 8 17t19 8z" horiz-adv-x="781" />

<glyph glyph-name="block" unicode="&#xe83b;" d="M732 352q0 90-48 164l-421-420q76-50 166-50 62 0 118 25t96 65 65 97 24 119z m-557-167l421 421q-75 50-167 50-83 0-153-40t-110-111-41-153q0-91 50-167z m682 167q0-88-34-168t-91-137-137-92-166-34-167 34-137 92-91 137-34 168 34 167 91 137 137 91 167 34 166-34 137-91 91-137 34-167z" horiz-adv-x="857.1" />

<glyph glyph-name="block-1" unicode="&#xe83c;" d="M480 830q200 0 340-140t140-340q0-198-140-339t-340-141q-198 0-339 141t-141 339q0 200 141 340t339 140z m258-220z m-622-260q0-132 82-230l514 514q-100 82-232 82-152 0-258-107t-106-259z m106-258z m258-106q152 0 259 107t107 257q0 130-82 232l-514-514q98-82 230-82z" horiz-adv-x="960" />

<glyph glyph-name="login" unicode="&#xe83d;" d="M800 800q42 0 71-29t29-71l0-700q0-40-29-70t-71-30l-450 0q-40 0-69 30t-29 70l0 100 98 0 0-100 450 0 0 700-450 0 0-150-98 0 0 150q0 42 29 71t69 29l450 0z m-350-670l0 120-450 0 0 150 450 0 0 120 200-194z" horiz-adv-x="900" />

<glyph glyph-name="cog-outline-1" unicode="&#xe83e;" d="M560 741l-156 0-45-178-176 51-79-136 133-128-133-127 79-135 176 50 45-178 156 0 44 178 178-50 77 135-132 127 132 128-77 136-178-51z m0 104q35 0 63-22t37-57l19-73 74 21q15 4 29 4 60 0 90-53l77-135q18-31 13-66t-30-60l-55-54 55-52q25-25 30-60t-13-67l-77-136q-30-51-90-51-14 0-29 3l-74 21-17-74q-9-35-37-57t-65-22l-156 0q-36 0-64 22t-37 57l-19 74-72-22q-15-4-29-4-60 0-90 53l-79 135q-18 31-13 67t31 61l55 52-55 53q-25 25-30 60t12 67l79 135q30 53 90 53 14 0 29-4l72-21 19 73q9 35 37 57t64 22l156 0z m-78-391q-44 0-74-30t-30-74 30-74 74-30 74 31 31 73-31 73-74 31z m0 52q65 0 110-45t46-111-46-111-110-45-111 45-46 111 46 111 111 45z" horiz-adv-x="963" />

<glyph glyph-name="cog-2" unicode="&#xe83f;" d="M0 307l0 86q0 21 15 39t36 22l96 19q5 20 15 41l-53 80q-13 20-10 42t18 38l59 59q19 19 45 19 19 0 35-11l80-53q21 10 41 16l20 95q3 22 21 36t39 15l86 0q21 0 39-15t22-36l19-95q20-6 41-16l80 53q16 11 35 11 26 0 45-19l59-59q17-15 19-38t-11-42l-53-80q10-21 16-41l95-19q22-4 36-22t15-39l0-86q0-21-15-39t-36-21l-95-20q-6-20-16-41l53-80q13-20 11-42t-19-38l-59-59q-19-19-45-19-19 0-35 11l-80 53q-21-10-41-16l-19-95q-4-22-22-36t-39-15l-86 0q-21 0-39 14t-21 37l-20 95q-20 6-41 16l-80-53q-16-11-35-11-26 0-45 19l-59 59q-15 15-18 38t10 42l53 80q-10 21-15 41l-96 20q-22 3-36 21t-15 39z m63 0l95-19q35-6 47-40 6-17 14-35 15-31-4-60l-55-82 61-61 82 55q15 10 33 10 16 0 27-6 18-8 35-14 34-12 40-47l19-96 86 0 20 96q5 35 39 47 17 6 35 14 11 6 27 6 18 0 33-10l82-55 61 61-55 82q-19 29-4 60 8 18 14 35 12 34 47 40l95 19 0 86-95 20q-35 5-47 39-6 17-14 35-15 31 4 60l55 82-61 61-82-55q-15-10-33-10-16 0-27 6-18 8-35 14-34 12-39 47l-20 95-86 0-19-95q-6-35-40-47-17-6-35-14-11-6-27-6-18 0-33 10l-82 55-61-61 55-82q19-29 4-60-8-18-14-35-12-34-47-39l-95-20 0-86z m218 43q0 90 65 154t154 65 154-65 65-154-65-154-154-65-154 65-65 154z m28 0q0-80 55-136t136-55 136 55 55 136-55 136-136 55-136-55-55-136z m66 0q0 53 36 89t89 36 89-37 36-89-36-88-89-36-89 36-36 89z m31 0q0-39 28-66t66-28 66 28 28 66-28 66-66 28-66-28-28-66z" horiz-adv-x="1000" />

<glyph glyph-name="edit" unicode="&#xe840;" d="M496 189l64 65-85 85-64-65v-31h53v-54h32z m245 402q-9 9-18 0l-196-196q-9-9 0-18t18 0l196 196q9 9 0 18z m45-331v-106q0-67-47-114t-114-47h-464q-67 0-114 47t-47 114v464q0 66 47 113t114 48h464q35 0 65-14 9-4 10-13 2-10-5-16l-27-28q-8-8-18-4-13 3-25 3h-464q-37 0-63-26t-27-63v-464q0-37 27-63t63-27h464q37 0 63 27t26 63v70q0 7 5 12l36 36q8 8 20 4t11-16z m-54 411l161-160-375-375h-161v160z m248-73l-51-52-161 161 51 52q16 15 38 15t38-15l85-85q16-16 16-38t-16-38z" horiz-adv-x="1000" />

<glyph glyph-name="pencil" unicode="&#xe841;" d="M718 680q32-32 47-64t15-48l0-16-252-252-290-288-238-52 50 240 290 288 252 252q54 12 126-60z m-494-640l24 24q-2 44-52 94-22 22-45 35t-35 13l-14 2-22-24-18-80q28-16 46-34 24-24 36-48z" horiz-adv-x="780" />

<glyph glyph-name="pencil-1" unicode="&#xe842;" d="M203-7l50 51-131 131-51-51v-60h72v-71h60z m291 518q0 12-12 12-5 0-9-4l-303-302q-4-4-4-10 0-12 13-12 5 0 9 4l303 302q3 4 3 10z m-30 107l232-232-464-465h-232v233z m381-54q0-29-20-50l-93-93-232 233 93 92q20 21 50 21 29 0 51-21l131-131q20-22 20-51z" horiz-adv-x="857.1" />

<glyph glyph-name="floppy" unicode="&#xe843;" d="M214-7h429v214h-429v-214z m500 0h72v500q0 8-6 21t-11 20l-157 156q-5 6-19 12t-22 5v-232q0-22-15-38t-38-16h-322q-22 0-37 16t-16 38v232h-72v-714h72v232q0 22 16 38t37 16h465q22 0 38-16t15-38v-232z m-214 518v178q0 8-5 13t-13 5h-107q-7 0-13-5t-5-13v-178q0-7 5-13t13-5h107q7 0 13 5t5 13z m357-18v-518q0-22-15-38t-38-16h-750q-23 0-38 16t-16 38v750q0 22 16 38t38 16h517q23 0 50-12t42-26l156-157q16-15 27-42t11-49z" horiz-adv-x="857.1" />

<glyph glyph-name="floppy-1" unicode="&#xe844;" d="M658 750l142-156 0-544q0-40-29-70t-71-30l-600 0q-40 0-70 30t-30 70l0 600q0 42 30 71t70 29l558 0z m-58-300l0 250-400 0 0-250q0-20 15-35t35-15l300 0q20 0 35 15t15 35z m-50 200l0-200-100 0 0 200 100 0z" horiz-adv-x="800" />

<glyph glyph-name="th-large" unicode="&#xe845;" d="M0 663q0 65 46 110t110 46l104 0q65 0 111-46t45-110l0-104q0-65-45-111t-111-45l-104 0q-65 0-110 45t-46 111l0 104z m521 0q0 65 46 110t111 46l103 0q65 0 111-46t46-110l0-104q0-65-46-111t-111-45l-103 0q-65 0-111 45t-46 111l0 104z m-521-521q0 65 46 110t110 46l104 0q65 0 111-46t45-110l0-104q0-65-45-111t-111-46l-104 0q-65 0-110 46t-46 111l0 104z m521 0q0 65 46 110t111 46l103 0q65 0 111-46t46-110l0-104q0-65-46-111t-111-46l-103 0q-65 0-111 46t-46 111l0 104z" horiz-adv-x="938" />

<glyph glyph-name="th-large-outline" unicode="&#xe846;" d="M365 872q43 0 73-31t31-74l0-260q0-44-31-74t-73-30l-261 0q-44 0-74 30t-30 74l0 260q0 43 31 74t73 31l261 0z m0-365l0 260-261 0 0-260 261 0z m573 365q42 0 73-31t30-74l0-260q0-44-30-74t-73-30l-260 0q-44 0-75 30t-30 74l0 260q0 43 31 74t74 31l260 0z m0-365l0 260-260 0 0-260 260 0z m-573-209q43 0 73-30t31-74l0-260q0-44-31-74t-73-31l-261 0q-43 0-73 31t-31 74l0 260q0 44 30 74t74 30l261 0z m0-364l0 260-261 0 0-260 261 0z m573 364q42 0 73-30t30-74l0-260q0-44-30-74t-73-31l-260 0q-43 0-74 31t-31 74l0 260q0 43 30 73t75 31l260 0z m0-364l0 260-260 0 0-260 260 0z" horiz-adv-x="1041" />

<glyph glyph-name="th" unicode="&#xe847;" d="M1000 850v-160h-440v160h440z m0-280v-160h-440v160h440z m0-280v-160h-440v160h440z m-560 560v-440h-440v440h440z m-320-320h200v200h-200v-200z m880-520v-160h-440v160h440z m-560 280v-440h-440v440h440z m-320-320h200v200h-200v-200z" horiz-adv-x="1000" />

<glyph glyph-name="upload" unicode="&#xe848;" d="M714 29q0 14-10 25t-25 10-25-10-11-25 11-25 25-11 25 11 10 25z m143 0q0 14-10 25t-26 10-25-10-10-25 10-25 25-11 26 11 10 25z m72 125v-179q0-22-16-38t-38-16h-821q-23 0-38 16t-16 38v179q0 22 16 38t38 15h238q12-31 39-51t62-20h143q34 0 61 20t40 51h238q22 0 38-15t16-38z m-182 361q-9-22-33-22h-143v-250q0-15-10-25t-25-11h-143q-15 0-25 11t-11 25v250h-143q-23 0-33 22-9 22 8 39l250 250q10 10 25 10t25-10l250-250q18-17 8-39z" horiz-adv-x="928.6" />

<glyph glyph-name="eye" unicode="&#xe849;" d="M929 314q-85 132-213 197 34-58 34-125 0-103-73-177t-177-73-177 73-73 177q0 67 34 125-128-65-213-197 75-114 187-182t242-68 243 68 186 182z m-402 215q0 11-8 19t-19 7q-70 0-120-50t-50-119q0-11 8-19t19-8 19 8 8 19q0 48 34 82t82 34q11 0 19 8t8 19z m473-215q0-19-11-38-78-129-210-206t-279-77-279 77-210 206q-11 19-11 38t11 39q78 128 210 205t279 78 279-78 210-205q11-20 11-39z" horiz-adv-x="1000" />

<glyph glyph-name="eye-1" unicode="&#xe84a;" d="M500 630q92 0 177-25t141-62 99-77 63-71 20-45-20-44-63-71-99-78-141-62-177-25-177 25-141 62-99 78-63 71-20 44 20 45 63 71 99 77 141 62 177 25z m0-494q92 0 157 63t65 151q0 90-65 153t-157 63-157-63-65-153q0-88 65-151t157-63z m0 214q8-8 37-2t50 11 25-9q0-44-33-75t-79-31-78 31-32 75q0 46 32 77t78 31q14 0 10-23t-12-47 2-38z" horiz-adv-x="1000" />

<glyph glyph-name="download" unicode="&#xe84b;" d="M714 100q0 15-10 25t-25 11-25-11-11-25 11-25 25-11 25 11 10 25z m143 0q0 15-10 25t-26 11-25-11-10-25 10-25 25-11 26 11 10 25z m72 125v-179q0-22-16-37t-38-16h-821q-23 0-38 16t-16 37v179q0 22 16 38t38 16h259l75-76q33-32 76-32t76 32l76 76h259q22 0 38-16t16-38z m-182 318q10-23-8-39l-250-250q-10-11-25-11t-25 11l-250 250q-17 16-8 39 10 21 33 21h143v250q0 15 11 25t25 11h143q14 0 25-11t10-25v-250h143q24 0 33-21z" horiz-adv-x="928.6" />

<glyph glyph-name="cancel-2" unicode="&#xe84c;" d="M452 194q18-18 18-43t-18-43q-18-16-43-16t-43 16l-132 152-132-152q-18-16-43-16t-43 16q-16 18-16 43t16 43l138 156-138 158q-16 18-16 43t16 43q18 16 43 16t43-16l132-152 132 152q18 16 43 16t43-16q18-18 18-43t-18-43l-138-158z" horiz-adv-x="470" />

<glyph glyph-name="cancel-3" unicode="&#xe84d;" d="M0 90q0 36 26 62l195 195-195 196q-26 25-26 61t26 61 61 25 61-25l196-196 195 196q25 25 61 25t61-25 25-61-25-61l-195-196 195-195q25-26 25-62t-25-61q-25-25-61-25t-61 25l-195 195-196-195q-25-25-61-25t-61 25q-26 26-26 61z" horiz-adv-x="686.5" />

<glyph glyph-name="lock-reset" unicode="&#xe84e;" d="M856 809c1-1 1-1 2-2 22-8 33-22 33-47 0-54 0-108 0-162 0-8 1-15 0-23-1-26-24-46-49-42-3 1-6 1-10 1-53 0-107 0-160 0-19 0-33 10-39 27-7 18-3 40 9 52 8 9 18 12 29 12 16 0 32 0 48 0 2 0 5 0 10 0-4 4-6 6-8 8-204 176-504 62-559-210-39-191 77-383 256-429 185-48 369 69 418 264 4 18 7 36 10 54 4 25 24 41 49 37 22-3 39-26 36-50-20-160-97-279-230-355-78-45-162-62-250-49-168 25-286 122-353 287-16 42-25 86-28 132 0 2-1 4-2 6 0 20 0 40 0 60 1 5 2 11 3 17 10 103 49 193 117 268 65 74 145 120 240 137 15 3 30 4 45 7 19 0 38 0 56 0 2-1 4-2 6-2 101-9 188-50 262-122 2-2 4-4 7-7 0 14 0 26 0 38 0 13 0 26 0 40 0 28 8 41 35 52 6 1 11 1 17 1z m-225-412c30-6 43-22 43-53 0-58 0-115 0-173 0-31-17-50-47-50-84 0-168 0-253 0-29 0-46 19-46 50 0 58 0 115 0 173 0 31 13 47 43 53 0 13 1 27 0 40 0 18 2 36 9 53 21 59 76 95 135 89 58-7 106-55 115-118 1-9 1-18 1-27 0-12 0-24 0-37z m-87 0c0 16 0 31 0 46 0 22-16 41-36 44-21 4-43-9-47-30-4-20-3-40-4-60 30 0 58 0 87 0z m0-139c0 26-19 46-43 46-24 0-43-20-43-45 0-26 19-46 43-46 24 0 43 20 43 45z" horiz-adv-x="1000" />

<glyph glyph-name="cloud-outline" unicode="&#xe84f;" d="M964 264c-1-5-1-9-2-14-3-26-11-50-24-73-13-24-32-44-54-61-1 0-1 0-2-1-18 19-37 38-56 56 4 2 8 5 11 7 26 19 42 43 48 75 6 35-3 67-26 95-18 20-40 33-66 38-8 1-16 2-24 2-18 0-35 0-53 0-1 0-2 0-3 0 0 1 0 2 0 3-1 12 0 24-1 36-2 27-10 53-22 77-25 47-61 80-110 101-28 11-56 16-86 15-32-1-61-9-90-23-1-1-2-1-4 0-17 18-35 36-52 53-1 1-2 1-2 2 2 2 5 3 8 5 28 17 59 29 92 35 26 5 53 6 80 4 36-3 70-12 102-29 79-40 130-103 153-189 1-4 2-8 3-12 0-2 1-2 3-2 12-1 24-3 36-7 32-9 60-25 83-48 29-28 47-61 55-101 1-8 2-16 3-24 0-1 0-2 0-3 0-5 0-11 0-17z m-763 433c-16-16-32-32-48-48 35-36 70-71 105-106-1 0-1 0-1 0-12-2-24-3-35-5-42-8-79-27-110-56-45-41-70-93-75-154-2-22 0-44 4-65 13-57 42-103 89-138 41-31 88-46 140-46 149 0 299 0 448 0 2 0 4 0 5-2 25-24 49-48 73-73 1 0 2-1 2-2 17 17 33 33 49 50-215 215-430 430-646 645z m440-540c-124 0-249 0-373 0-72 0-134 49-150 119-14 57 6 117 51 154 24 19 50 31 81 35 6 0 13 1 20 1 21 0 42 0 63 0 1 0 2-1 3-2 76-75 152-151 227-227 27-26 53-52 79-78 0-1 1-1 2-2-1 0-2 0-3 0z" horiz-adv-x="1000" />

<glyph glyph-name="credit-card" unicode="&#xe850;" d="M982 779q37 0 63-27t26-63v-678q0-37-26-63t-63-27h-893q-36 0-63 27t-26 63v678q0 37 26 63t63 27h893z m-893-72q-7 0-12-5t-6-13v-125h929v125q0 8-5 13t-13 5h-893z m893-714q7 0 13 5t5 13v339h-929v-339q0-7 6-13t12-5h893z m-839 71v72h143v-72h-143z m214 0v72h214v-72h-214z" horiz-adv-x="1071.4" />

<glyph glyph-name="record" unicode="&#xe851;" d="M313 663q130 0 221-92t91-221-91-221-221-91-222 91-91 221 91 221 222 92z" horiz-adv-x="625" />

<glyph glyph-name="record-outline" unicode="&#xe852;" d="M313 559q-87 0-148-61t-61-148 61-147 148-62 147 62 61 147-61 148-147 61z m0 104q130 0 221-92t91-221-91-221-221-91-222 91-91 221 91 221 222 92z" horiz-adv-x="625" />

<glyph glyph-name="menu-1" unicode="&#xe853;" d="M834 90q42 0 73-30t31-75q0-42-30-73t-74-31l-730 0q-44 0-74 31t-30 73q0 44 31 75t73 30l730 0z m0 364q44 0 74-31t30-73-30-73-74-30l-730 0q-44 0-74 30t-30 73 30 73 74 31l730 0z m0 365q44 0 74-31t30-73q0-43-31-74t-73-31l-730 0q-43 0-73 31t-31 74q0 43 30 73t74 31l730 0z" horiz-adv-x="938" />

<glyph glyph-name="csv-icon" unicode="&#xe854;" d="M362 828c-22-4-60-27-102-61-27-22-90-86-112-113-36-43-58-80-62-104-1-8-2-105-1-292 0-265 0-282 4-294 10-34 36-66 67-80 30-14 13-14 281-14 229 0 243 1 256 4 43 12 79 49 90 90 2 7 4 24 5 39l1 27h-32-32l-1-26c0-22-1-27-5-35-6-12-17-23-29-29l-11-6-241 0-241-1-11 5c-14 7-25 17-32 30l-5 10-1 282 0 282 58 1c66 1 72 2 97 15 19 10 44 34 54 53 13 25 14 32 15 97l1 58 153 0 153-1 11-5c13-7 23-18 29-32l6-11v-167-168h32 32l-1 171c-1 189 0 177-15 207-9 20-33 44-53 55-29 15-20 14-194 15-86 0-159-1-164-2z m-34-480c-13-3-25-10-35-20-16-18-16-18-16-122 0-107 0-105 19-125 21-20-6-18 300-18 307 0 280-2 301 18 19 20 19 18 19 125s0 105-19 124c-21 21 7 19-296 19-145 0-268 0-273-1z m124-65c20-6 32-17 41-34 3-6 5-11 5-12 0 0-5-2-12-3-7-1-13-3-15-3-1-1-4 2-7 8-7 16-20 23-40 23-13 0-29-5-37-12-20-18-21-65-2-86 15-16 48-19 67-6 6 4 15 18 19 28 0 2 3 2 14-1 7-1 14-3 15-4 2-2-6-20-15-30-5-7-12-12-22-17-12-6-15-7-33-8-32-1-51 5-69 23-15 15-20 28-20 58 0 20 1 25 5 33 9 21 23 33 46 41 16 6 44 6 60 2z m180 0c19-6 31-16 36-30 2-5 2-5-5-7-4-1-11-3-16-3-7-1-8-1-11 5-5 9-14 13-34 13-20 0-30-4-34-13-5-12 3-18 34-24 32-7 51-13 60-21 11-10 15-17 15-29 0-14-4-22-15-31-13-12-30-17-55-17-34 0-56 8-68 27-10 14-9 16 8 19 10 2 15 3 15 1 2-5 13-15 21-18 10-4 32-5 45-1 17 4 24 18 14 27-7 7-12 9-37 14-42 9-58 16-65 31-10 24 4 49 34 57 14 4 46 3 58 0z m116-60c13-35 24-62 25-62 1 1 11 27 24 59 12 31 23 59 24 61 2 4 4 5 17 5 8 0 15-1 15-1 0-1-37-89-63-150l-4-10-14 1-14 1-32 76c-17 42-32 77-33 79-1 3 1 4 15 4h16l24-63z m-577 376c40 0 81 0 122 0 5 0 11 0 17 0 0 5 0 10 0 15 0 41 0 81 0 122-46-46-92-92-139-137z m157 150l-158-157h86c25 0 50 0 75 0v144l2 14c0-1-3-2-4-2m-16-122" horiz-adv-x="1000" />

<glyph glyph-name="attention" unicode="&#xe855;" d="M571 83v106q0 8-5 13t-12 5h-108q-7 0-12-5t-5-13v-106q0-8 5-13t12-6h108q7 0 12 6t5 13z m-1 208l10 257q0 6-5 10-7 6-14 6h-122q-6 0-14-6-5-4-5-12l9-255q0-5 6-9t13-3h103q8 0 14 3t5 9z m-7 522l428-786q20-35-1-70-9-17-26-26t-35-10h-858q-18 0-35 10t-26 26q-21 35-1 70l429 786q9 17 26 27t36 10 36-10 27-27z" horiz-adv-x="1000" />

<glyph glyph-name="attention-circled" unicode="&#xe856;" d="M429 779q116 0 215-58t156-156 57-215-57-215-156-156-215-58-216 58-155 156-58 215 58 215 155 156 216 58z m71-696v106q0 8-5 13t-12 5h-107q-8 0-13-5t-6-13v-106q0-8 6-13t13-6h107q7 0 12 6t5 13z m-1 192l10 346q0 7-6 10-5 5-13 5h-123q-8 0-13-5-6-3-6-10l10-346q0-6 5-10t14-4h103q8 0 13 4t6 10z" horiz-adv-x="857.1" />

<glyph glyph-name="exclamation" unicode="&#xe857;" d="M0 350q0 207 147 354t353 146 354-146 146-354-146-354-354-146-353 146-147 354z m318 402l79-550 207 0 78 550-364 0z m77-696q0-44 31-76t76-32 76 32 31 76-31 76-76 33-76-33-31-76z" horiz-adv-x="1000" />

<glyph glyph-name="attention-1" unicode="&#xe858;" d="M571 83v106q0 8-5 13t-12 5h-108q-7 0-12-5t-5-13v-106q0-8 5-13t12-6h108q7 0 12 6t5 13z m-1 208l10 257q0 6-5 10-7 6-14 6h-122q-6 0-14-6-5-4-5-12l9-255q0-5 6-9t13-3h103q8 0 14 3t5 9z m-7 522l428-786q20-35-1-70-9-17-26-26t-35-10h-858q-18 0-35 10t-26 26q-21 35-1 70l429 786q9 17 26 27t36 10 36-10 27-27z" horiz-adv-x="1000" />

<glyph glyph-name="area-orientation" unicode="&#xe866;" d="M614 689c38 0 72-14 95-39 24-24 39-57 39-94 0-37-15-70-39-95l0 0c-23-24-57-39-95-39-36 0-70 15-93 39l-2 2c-24 23-38 57-38 93 0 37 16 70 40 94 23 25 57 39 93 39z m62-73c-16 16-38 26-62 26-24 0-45-10-60-26-15-15-25-36-25-60 0-23 8-44 24-60l1-1c15-16 36-25 60-25 24 0 46 9 62 25l0 0c15 15 25 38 25 61 0 24-10 45-25 60z m-80-647l0 1c-38 46-96 130-151 221l-151-149 77-135 487 0-83 129c0 1-1 3-1 4l-42 66c-38-56-73-105-98-136-9-11-24-12-34-4-1 1-3 3-4 3z m-176 264c-11 20-21 38-31 58-10 18-20 37-28 56l-243 0 151-263 151 149z m11 80c56-110 133-224 183-291 52 67 127 181 185 291 43 83 74 162 74 215 0 73-28 140-76 188-46 47-111 77-183 77-71 0-135-30-182-77-47-48-77-115-77-188 0-53 33-132 76-215z m-90 81c-21 50-33 97-33 134 0 86 35 164 91 221 54 56 131 91 215 91 86 0 162-35 217-91 56-57 90-135 90-221 0-37-13-84-33-134l125 0c12 0 22-10 24-22 14-160 33-329 42-488 0-13-10-24-23-24l-1024 0c-14 1-23 12-22 26l43 486c0 12 12 22 24 22l264 0z m528-47c-9-19-18-38-28-56-11-21-23-42-35-63l196 0-10 119-123 0z m-91-167l-18-31 47-75 209 0-10 106-228 0z m242-154l-182 0 76-119 116 0-10 119z m-704-119l-222 386-34-386 256 0z" horiz-adv-x="1088" />

<glyph glyph-name="departure-assistance" unicode="&#xe867;" d="M483 629l26-26c23 23 59 23 82 0l26 26c-37 37-97 37-134 0l0 0z m594-266l-149 39 0 52c0 40-32 72-72 72-40 0-72-32-72-72l0-14-103 27 6 105c5 90-26 179-86 247-13 15-31 23-51 23l0 0c-20 0-38-8-51-23-60-68-91-157-86-248l6-104-103-27 0 14c0 40-32 72-72 72-40 0-72-32-72-72l0-52-149-39c-8-2-13-9-13-17l0-108c0-10 8-18 18-18 0 0 1 0 2 0l400 35 11-204-97-49c-6-3-10-9-10-16l0-72c0-10 8-18 18-18l137 0 8-24c2-7 9-12 17-12l72 0c8 0 15 5 17 12l8 24 137 0c10 0 18 8 18 18l0 72c0 7-4 13-10 16l-97 49 11 204 401-35c0 0 1 0 1 0 10 0 18 8 18 18l0 108c0 8-5 15-13 17z m-257 91c0 20 16 36 36 36 20 0 36-16 36-36l0-42-72 18 0 24z m-612 0c0 20 16 36 36 36 20 0 36-16 36-36l0-24-72-18 0 42z m-162-122l36 9 0-80-36-3 0 74z m72-68l0 87 303 79 7-139-310-27z m252-332l0 43 79 40 28-83-107 0z m203-36l-46 0-49 147-29 530c-4 81 23 161 77 222 6 7 15 11 25 11 9 0 18-4 24-12 53-60 80-139 76-220l-29-531-49-147z m157 36l-107 0 28 83 79-40 0-43z m-51 498l303-79 0-87-310 27 7 139z m375-172l-36 3 0 80 36-9 0-74z" horiz-adv-x="1099" />

<glyph glyph-name="eu-citizen" unicode="&#xe868;" d="M942 347l-130 489c-2 6-6 10-11 11-6 2-11 1-16-2-1-1-85-65-182-90-46-12-95 1-148 16-54 16-110 31-165 17-104-29-185-123-188-126-4-5-5-10-4-16l208-772c2-8 9-12 15-12 1 0 3 0 5 1 8 2 14 11 12 20l-205 762c20 21 87 88 167 110 46 12 96-1 148-17 54-15 110-30 165-16 75 20 142 60 173 82l122-455c-24-17-95-63-173-84-46-12-96 2-148 17-54 15-110 31-165 16-38-9-137-69-177-99-8-6-2-42 5-36 37 27 146 94 180 104 46 12 95-1 148-17 54-15 111-31 164-16 104 27 190 93 194 95 6 5 8 12 6 18z m-459 332c12 3 24-4 27-16 3-12-4-24-15-27-12-3-24 4-27 16-3 11 4 23 15 27z m80-299c12 3 24-4 27-15 3-12-4-24-15-27-12-3-24 4-27 15-3 12 4 24 15 27z m-189 109c11 3 23-4 27-16 3-11-4-23-16-27-12-3-24 4-27 16-3 12 4 24 16 27z m299 81c12 3 24-4 27-16 3-11-4-23-16-26-11-4-23 3-27 15-3 12 4 24 16 27z m-270 63c9 9 23 9 31 0 9-9 9-23 0-31-8-9-22-9-31 0-8 9-8 22 0 31z m220-219c8 8 22 8 31 0 8-9 8-23 0-31-9-9-23-9-31 0-9 8-9 22 0 31z m-220 0c9 8 23 8 31 0 9-9 9-23 0-31-8-9-22-9-31 0-8 8-8 22 0 31z m220 219c8 9 22 9 31 0 8-8 8-22 0-31-9-8-23-8-31 0-9 9-9 23 0 31z m-266-79c4 12 16 19 27 16s19-16 16-27-15-19-27-16-19 15-16 27z m301-80c3 12 15 19 27 15 11-3 18-15 15-26-3-12-15-19-27-16-11 3-18 15-15 27z m-191-109c3 11 15 18 27 15 12-3 19-15 16-27-4-12-16-19-27-15-12 3-19 15-16 27z m81 299c3 11 15 18 27 15 12-3 19-15 15-27-3-12-15-19-26-15-12 3-19 15-16 27z" horiz-adv-x="1000" />

<glyph glyph-name="eu-forms" unicode="&#xe869;" d="M1467-133l-1418 0c-18 0-32 14-32 32l0 902c0 18 14 32 32 32l1418 0c18 0 32-14 32-32l0-902c0-18-14-32-32-32z m-1386 64l1354 0 0 838-1354 0 0-838z m677 193c-89 0-161 58-161 129l0 194c0 71 72 129 161 129 101 0 156-32 161-94 1-18-12-34-30-35-17-2-33 12-34 29-2 23-35 35-97 35-52 0-97-29-97-64l0-194c0-35 45-64 97-64 62 0 95 12 97 35 1 18 17 31 34 29 18-1 31-17 30-35-5-62-60-94-161-94z m0 258l-194 0c-17 0-32 15-32 32 0 18 15 33 32 33l194 0c18 0 32-15 32-33 0-17-14-32-32-32z m0-129l-194 0c-17 0-32 15-32 33 0 17 15 32 32 32l194 0c18 0 32-15 32-32 0-18-14-33-32-33z m580 387l-129 0c-18 0-32 14-32 32 0 18 14 33 32 33l129 0c18 0 32-15 32-33 0-18-14-32-32-32z m-1031-645l-129 0c-18 0-32 15-32 33 0 18 14 32 32 32l129 0c17 0 32-14 32-32 0-18-15-33-32-33z" horiz-adv-x="1514" />

<glyph glyph-name="house-search" unicode="&#xe86a;" d="M195-150l614 0c65 0 115 43 115 100l0 550 16-10c15-10 42-7 53 7 12 13 8 36-7 46l-461 300c-4 0-4 4-8 4l-7 3-16 0-7-3c-4 0-4-4-8-4l-4 0-461-300c-15-10-19-33-7-46 11-14 38-17 53-7l20 13 0-553c0-57 50-100 115-100z m384 67l-154 0 0 183c0 10 8 17 19 17l116 0c11 0 19-7 19-17l0-183z m-77 856l345-223 0-600c0-20-15-33-38-33l-153 0 0 183c0 47-43 83-96 83l-116 0c-53 0-96-36-96-83l0-183-153 0c-23 0-39 13-39 33l0 600 346 223z" horiz-adv-x="1000" />

<glyph glyph-name="immigration" unicode="&#xe86b;" d="M664 36l-55 0c-44 0-80 36-80 80l0 36c0 25 9 48 25 66-16 37-5 81 27 105 32 25 76 25 108 0 32-24 43-68 27-105 17-18 26-41 26-66l0-36c0-44-35-79-78-80z m-28 257c-10 0-21-5-28-12-7-8-12-18-11-28 0-9 3-18 8-25 4-5 6-12 5-19-1-6-5-12-10-16-14-9-22-24-22-41l0-36c0-17 14-31 31-31l55 0c16 0 30 14 30 31l0 36c0 17-8 32-21 41-6 4-10 10-11 16-1 7 1 14 5 19 6 7 9 16 9 25 0 10-4 21-12 28-7 7-17 12-28 12z m622 18c0-14-11-25-24-25l-391 0c-13 0-24 11-24 25 0 13 11 24 24 24l391 0c13 0 24-11 24-24z m0-98c0-13-11-24-24-24l-391 0c-13 0-24 11-24 24 0 14 11 25 24 25l391 0c13 0 24-11 24-25z m0-97c0-14-11-25-24-25l-391 0c-13 0-24 11-24 25 0 13 11 24 24 24l391 0c13 0 24-11 24-24z m-146 610l-71 0-115 114c-6 8-15 12-25 10-9-3-17-10-19-19-2-10 2-20 10-25l80-80-161 0 0 24c0 13-10 24-24 24l0 0c-13 0-24-11-24-24l0-49 0 0 0-49c0-13 11-24 24-24l0 0c14 0 24 11 24 24l0 25 161 0-80-81c-4-4-7-10-7-17 0-6 3-13 7-17 5-5 11-7 17-7 7 0 13 2 18 7l114 115 71 0c13 0 24 11 24 24 0 14-11 25-24 25z m-415-49l-5 0-4 1c-2 1-3 1-4 2-2 1-3 2-4 3-5 5-7 12-7 18 0 3 0 6 2 9 1 3 3 6 5 8l4 3c1 1 2 2 4 3l4 2c3 0 7 0 10 0l4-2c2 0 3-1 5-2l3-3c3-2 4-5 5-8 3-6 3-13 0-19-1-3-2-5-5-8l-3-3c-2-1-3-1-5-2l-4-2-5 0z m634-171l-878 0c-40 0-73-33-73-73l0-122-110 0c-101 0-183 82-183 183 0 101 82 183 183 183l329 0c14 0 25 11 25 24 0 14-11 25-25 25l-329 0c-128 0-231-104-231-232 0-128 103-232 231-232l110 0 0-317c0-40 33-73 73-73l878 0c41 0 73 33 73 73l0 488c0 40-32 73-73 73z m25-561c0-14-11-24-25-24l-878 0c-13 0-24 10-24 24l0 488c0 13 11 24 24 24l878 0c14 0 25-11 25-24l0-488z" horiz-adv-x="1423" />

<glyph glyph-name="inventory" unicode="&#xe86c;" d="M233-111l0 476-30 0c-20 0-20 30 0 30l119 0 0 14c0 48 32 89 76 101l-85 110c-6-2-14-3-21-3-41 0-74 34-74 75 0 41 33 74 74 74 20 0 38-8 51-20l165 92c7 4 16 2 20-5l44-74 0 0c48 19 103 1 129-45l15-25c4-7 2-17-5-21l-155-89c-7-4-16-1-20 6l-15 25c-26 46-14 102 26 134l-37 61-150-84c4-9 6-19 6-29 0-8-1-16-3-22-4-14-12-26-23-35l93-122c54-4 97-49 97-104l0-14 148 0c20 0 20-30 0-30l-29 0 0-476 208 0c19 0 19-29 0-29l-832 0c-20 0-20 29 0 29l208 0z m59 758c25 0 45 20 45 45 0 24-20 44-45 44-25 0-44-20-44-44 0-25 19-45 44-45z m384 53c-21 35-66 47-102 27-35-21-48-66-27-102l7-13 129 75-7 13z m-176-291c0 41-33 75-74 75-41 0-74-34-74-75l0-14 148 0 0 14z m-238-520l357 0 0 268-357 0 0-268z m0 298l357 0 0 178-357 0 0-178z m149 74c-8 0-15 7-15 15 0 8 7 15 15 15l59 0c9 0 15-7 15-15 0-8-6-15-15-15l-59 0z" horiz-adv-x="882" />

<glyph glyph-name="moving" unicode="&#xe86d;" d="M1581 313l-123 62-129 257c-5 11-17 18-29 18l-300 0 0 167c0 18-15 33-33 33l-934 0c-18 0-33-15-33-33l0-800c0-19 15-34 33-34l170 0c16-77 84-133 164-133 79 0 147 56 163 133l607 0c15-77 84-133 163-133 79 0 147 56 163 133l103 0c19 0 34 15 34 34l0 266c0 13-7 24-19 30z m-302 270l100-200-379 0 0 200 279 0z m-912-666c-56 0-100 45-100 100 0 55 44 100 100 100 55 0 100-45 100-100 0-55-45-100-100-100z m0 266c-80 1-148-55-164-133l-136 0 0 733 866 0 0-733-403 0c-16 78-84 134-163 133z m933-266c-55 0-100 45-100 100 0 55 45 100 100 100 55 0 100-45 100-100 0-55-45-100-100-100z m233 133l-70 0c-16 78-84 134-163 134-79 0-148-56-163-134l-137 0 0 267 425 0 108-54 0-213z" horiz-adv-x="1600" />

</font>
</defs>
</svg>
